<?xml version="1.0" standalone="no"?>
<!DOCTYPE svg PUBLIC "-//W3C//DTD SVG 1.1//EN" "http://www.w3.org/Graphics/SVG/1.1/DTD/svg11.dtd" >
<svg xmlns="http://www.w3.org/2000/svg">
<metadata></metadata>
<defs>
<font id="desyrelregular" horiz-adv-x="680" >
<font-face units-per-em="1000" ascent="800" descent="-200" />
<missing-glyph horiz-adv-x="322" />
<glyph horiz-adv-x="1000" />
<glyph horiz-adv-x="1000" />
<glyph horiz-adv-x="333" />
<glyph horiz-adv-x="203" d="M134 680q-16 -11 -36 -10.5t-34 16.5t-14 38q0 23 20 39q15 11 33.5 10t30.5 -10q10 -7 14.5 -18.5t4.5 -23.5t-4.5 -23t-14.5 -18z" />
<glyph horiz-adv-x="298" d="M187 668q17 15 17 40q0 26 -17 41q-15 17 -41 17q-25 0 -40 -17q-17 -15 -17 -41q0 -25 17 -40q15 -17 40 -17q26 0 41 17zM213 642q-28 -26 -67 -26q-38 0 -66 26q-26 28 -26 66q0 39 26 67q28 26 66 26q39 0 67 -26q26 -28 26 -67q0 -38 -26 -66z" />
<glyph unicode="&#xa;" horiz-adv-x="458" d="M427 655q7 -11 4.5 -21.5t-13.5 -17.5q-15 -9 -35.5 -20t-42.5 -23t-43 -22.5t-36 -17.5q-14 -6 -24 -2t-15 15q-5 10 -2.5 20.5t15.5 18.5q16 8 36.5 18.5t41.5 21t41.5 21t35.5 18.5q11 8 21 4.5t16 -13.5zM236 673q7 -11 4.5 -21.5t-13.5 -17.5q-15 -9 -35.5 -20 t-42.5 -23t-43 -22.5t-36 -17.5q-14 -6 -24 -2t-15 15q-5 10 -2.5 20.5t15.5 18.5q16 8 36.5 18.5t41.5 21t41.5 21t35.5 18.5q11 8 21 4.5t16 -13.5z" />
<glyph horiz-adv-x="204" d="M61 -110q-4 8 -6.5 19t-1 22t9 20.5t23.5 14.5q8 2 10 4.5t2 8.5q0 4 -2 11t-4 15q-3 9 3.5 16.5t16 9.5t19.5 -3.5t14 -21.5q6 -23 6 -42q0 -30 -29 -38q-11 -3 -12 -8.5t4 -10.5q5 -6 15.5 -11t24.5 -9q12 -3 17 -12t3.5 -18t-9 -16t-21.5 -5q-25 3 -47 17t-36 37z" />
<glyph horiz-adv-x="346" d="M76 700q-9 11 -8 21.5t9 17.5t17.5 8t19.5 -7q12 -11 25.5 -24.5t23.5 -22.5q3 -4 6 -3.5t6 2.5q17 11 39 24.5t42 26.5q11 7 22.5 3.5t16.5 -13.5q6 -8 5 -18.5t-13 -18.5q-27 -16 -54.5 -33.5t-48.5 -29.5q-24 -16 -44 1q-15 14 -33 33t-31 33z" />
<glyph unicode="&#xd;" horiz-adv-x="500" />
<glyph horiz-adv-x="520" d="M526 616q-3 -21 -24.5 -59t-55.5 -86t-77 -103.5t-87.5 -112t-88 -111.5t-79 -102t-59 -83.5t-28.5 -55.5q-5 -17 -13 -19.5t-21 1.5q-25 5 -22 34q2 23 29 67t70 101t96 123t106.5 133t102 131t81.5 117q0 17 2.5 31.5t9.5 25.5q10 17 19.5 21t22.5 2q11 -2 15 -17 t1 -38z" />
<glyph horiz-adv-x="718" d="M699 117q1 -12 -7.5 -24t-28.5 -14q-14 -2 -38.5 -9.5t-52 -17.5t-56 -19.5t-49.5 -14.5q-63 -15 -98.5 0.5t-51.5 73.5q-5 19 -5.5 44.5t1.5 44.5q2 25 6.5 48t11.5 43q-34 -5 -67.5 -8.5t-62.5 -6.5q-6 -63 -6.5 -128.5t3 -124t10 -104.5t15.5 -70q4 -11 11.5 -18 t13.5 -17q15 -27 -5 -45q-12 -11 -25.5 -11.5t-25.5 5.5q-31 17 -44 57q-13 45 -20 103t-9 119t-1 120.5t5 107.5q-15 -2 -28.5 -3.5t-28.5 -1.5q-18 -1 -27.5 9.5t-9.5 24.5q-1 13 8 25t28 14q14 2 31.5 3t33.5 3q8 60 24 117.5t39 105.5q27 52 60 87q10 10 25.5 22.5 t35 23t41 18t44.5 7.5q22 0 39.5 -7.5t30 -19.5t19.5 -27t8 -30q3 -17 0 -33q-4 -14 -14.5 -22t-22.5 -8q-13 -2 -24 5t-13 21q-2 5 -2 9t-2 11q-3 11 -11.5 17.5t-17.5 5.5q-17 -1 -38.5 -14t-40.5 -31q-12 -11 -25 -30t-22 -37q-19 -39 -31.5 -85t-20.5 -97q37 4 82.5 9 t90.5 10q14 2 23 -3.5t14 -14.5q11 -13 4 -27q-11 -22 -22.5 -58t-13.5 -69q-1 -20 0 -36t4 -27q5 -20 17.5 -26.5t39.5 -1.5q17 3 44 13t56.5 21.5t58 20.5t48.5 9q20 1 30.5 -11t11.5 -26z" />
<glyph horiz-adv-x="858" d="M594 465q-3 55 -20 59q-16 5 -44 -38q-13 -20 -26 -49.5t-24.5 -65t-18.5 -74t-8 -74.5q-2 -51 14 -93q26 31 52 66.5t43 75.5q6 15 12.5 38.5t11 50.5t7 54t1.5 50zM838 66q5 -13 -0.5 -27.5t-25.5 -22.5q-26 -9 -66.5 -23t-85.5 -24t-91 -12t-83 13q-63 26 -86 91 t-22 162q0 27 3 56q-45 -7 -92 -12.5t-88 -9.5q-6 -63 -6.5 -128.5t3 -124t10 -104.5t15.5 -70q4 -11 11.5 -18t13.5 -17q15 -27 -5 -45q-12 -11 -25.5 -11.5t-25.5 5.5q-31 17 -44 57q-13 45 -20 103t-9 119t-1 120.5t5 107.5q-15 -2 -28.5 -3.5t-28.5 -1.5 q-18 -1 -27.5 9.5t-9.5 24.5q-1 13 8 25t28 14q14 2 31.5 3t33.5 3q8 60 24 117.5t39 105.5q27 52 60 87q10 10 25.5 22.5t35 23t41 18t44.5 7.5q22 0 39.5 -7.5t30 -19.5t19.5 -27t8 -30q3 -17 0 -33q-4 -14 -14.5 -22t-22.5 -8q-13 -2 -24 5t-13 21q-2 5 -2 9t-2 11 q-3 11 -11.5 17.5t-17.5 5.5q-17 -1 -38.5 -14t-40.5 -31q-12 -11 -25 -30t-22 -37q-19 -39 -31.5 -85t-20.5 -97q39 4 88.5 9.5t95.5 9.5q14 55 35 103.5t44 80.5q32 45 63.5 67t59.5 17q30 -4 49.5 -38.5t23.5 -102.5q2 -27 0 -58.5t-7.5 -63.5t-14 -62.5t-19.5 -55.5 q-12 -28 -27.5 -53.5t-32.5 -48.5t-34.5 -43t-33.5 -37q6 -5 18.5 -12t23.5 -9q25 -4 55 -0.5t62 11.5t65 18.5t63 21.5q17 6 31 -1t19 -21z" />
<glyph horiz-adv-x="571" d="M193 683q-9 11 -8 21.5t9 17.5t17.5 8t19.5 -7q12 -11 25.5 -24.5t23.5 -22.5q3 -4 6 -3.5t6 2.5q17 11 39 24.5t42 26.5q11 7 22.5 3.5t16.5 -13.5q6 -8 5 -18.5t-13 -18.5q-27 -16 -54.5 -33.5t-48.5 -29.5q-24 -16 -44 1q-15 14 -33 33t-31 33zM567 489 q9 -23 -1.5 -51t-37.5 -54q-35 -33 -82 -74.5t-96 -85.5t-96 -86.5t-81 -77.5q-12 -12 -19.5 -22t-4.5 -18q5 -11 34 -14q40 -2 82.5 1.5t81.5 11t72 18t55 21.5q18 10 31.5 4t20.5 -18q8 -17 3.5 -31t-22.5 -22q-33 -15 -76 -27.5t-91 -21t-97.5 -11.5t-93.5 2 q-83 9 -97 53q-7 21 4.5 48t40.5 56q41 41 87 84t92 85t91 82t85 75q8 8 12 16t0 14q-5 9 -25 9q-82 -4 -151.5 -13t-143.5 -26q-15 -5 -27 -12t-23.5 -2.5t-17.5 15.5q-7 11 -6 24.5t15 27.5q14 13 42 21q79 19 165 29t185 12q38 2 60 -10t30 -32z" />
<glyph horiz-adv-x="451" d="M108 494q-9 11 -8 21.5t9 17.5t17.5 8t19.5 -7q12 -11 25.5 -24.5t23.5 -22.5q3 -4 6 -3.5t6 2.5q17 11 39 24.5t42 26.5q11 7 22.5 3.5t16.5 -13.5q6 -8 5 -18.5t-13 -18.5q-27 -16 -54.5 -33.5t-48.5 -29.5q-24 -16 -44 1q-15 14 -33 33t-31 33zM490 29q2 -12 -3 -25.5 t-22 -18.5q-25 -9 -69 -17.5t-93 -13.5t-96.5 -5.5t-79.5 5.5q-37 6 -48 37q-5 13 -1 30t18 35q18 23 39 45t41.5 41t38.5 35t31 28q20 18 15 30q-2 10 -25 10q-31 0 -65.5 1.5t-52.5 3.5q-19 2 -29.5 13.5t-10.5 25.5q0 19 18 30q12 8 26 8q15 0 26 -8q12 -1 28 -1.5 t32.5 -1t32 -1t26.5 -0.5q34 0 56.5 -11.5t30.5 -32.5q9 -20 0 -46t-39 -55q-12 -11 -27.5 -25t-33 -30t-34.5 -33t-31 -35q-7 -8 -4.5 -14.5t14.5 -7.5q20 -2 51.5 -0.5t66.5 5t69 9.5t60 14q17 5 29 -3t15 -21z" />
<glyph unicode=" "  horiz-adv-x="322" />
<glyph unicode="&#x09;" horiz-adv-x="322" />
<glyph unicode="&#xa0;" horiz-adv-x="322" />
<glyph unicode="!" horiz-adv-x="337" d="M250 51q9 -8 13.5 -19.5t4.5 -23.5t-5 -22.5t-14 -17.5q-16 -13 -36 -11.5t-34 17.5t-13.5 38.5t19.5 38.5q14 11 33 11t32 -11zM305 591q0 -10 -2 -15.5t-5 -9.5q-2 -34 -4.5 -77t-5.5 -90t-7 -95t-9 -90q-2 -18 -12.5 -26t-24.5 -7t-24.5 10t-8.5 26q5 51 9 110t8 115 t7 104t6 78q1 18 12 27t25 9q11 0 20.5 -8t12.5 -24q2 -8 2.5 -19t0.5 -18z" />
<glyph unicode="&#x22;" horiz-adv-x="246" d="M229 617v-27v-39q0 -20 -0.5 -39.5t-0.5 -32.5q0 -14 -9 -21.5t-21 -7.5q-11 0 -20 7t-9 22q0 24 0.5 54t0.5 46q-5 3 -6.5 8.5t-0.5 11.5t3.5 12.5t4.5 11.5q11 22 33 22q9 -1 16.5 -7.5t8.5 -20.5zM99 619v-27v-39q0 -20 -0.5 -39.5t-0.5 -32.5q0 -14 -9 -21.5 t-21 -7.5q-11 0 -20 7t-9 22q0 24 0.5 54t0.5 46q-5 3 -6.5 8.5t-0.5 11.5t3.5 12.5t4.5 11.5q11 22 33 22q9 -1 16.5 -7.5t8.5 -20.5z" />
<glyph unicode="#" horiz-adv-x="522" d="M345 277q-22 0 -41.5 -0.5t-38.5 -0.5q-6 -30 -12 -62.5t-11 -63.5h79q6 29 12.5 63t11.5 64zM528 300q0 -14 -9.5 -23.5t-23.5 -9.5q-7 0 -13.5 2t-15.5 5q-11 2 -24.5 3t-26.5 1q-6 -32 -13 -64t-12 -62q21 0 39.5 -3t28.5 -3q17 0 25.5 -11t8.5 -25q0 -12 -8 -22.5 t-24 -10.5q-13 0 -29 6q-11 1 -24 2t-31 1q-5 -23 -9 -47.5t-4 -45.5q11 -11 10 -26t-10 -27q-13 -17 -39 -16q-17 1 -22.5 13t-6.5 22q-2 23 3 57t10 70h-40t-42 -1q-5 -23 -9 -47.5t-4 -44.5q11 -12 9.5 -27t-10.5 -27q-14 -19 -39 -16q-18 2 -23 14.5t-6 21.5 q-2 20 3.5 54.5t10.5 67.5q-16 0 -29 -4q-8 -11 -22 -14t-27 2q-8 4 -18.5 12t-10.5 23q0 14 8 23t19 12q14 5 38.5 8.5t54.5 3.5q6 30 12 63t11 62q-7 0 -13 -0.5t-12 -2.5q-8 -14 -24 -16t-29 3q-11 5 -20 13.5t-9 22.5t8.5 21t19.5 11q20 8 41 11t51 3q6 29 11.5 64 t9.5 60q2 17 11.5 22.5t23.5 5.5t23.5 -10.5t7.5 -23.5q-5 -32 -9.5 -60.5t-9.5 -54.5h85q5 27 9.5 59t8.5 61q2 17 12.5 23t21.5 6q12 0 22 -9t10 -23q0 -11 -1.5 -25.5t-4 -30.5t-5.5 -31.5t-6 -28.5q23 0 38.5 -1.5t26.5 -3.5q20 -3 28 -14.5t8 -22.5z" />
<glyph unicode="$" horiz-adv-x="460" d="M338 149q0 12 -3 16t-13 12q-14 11 -33 18q-4 -35 -9 -73t-7 -70q19 14 34 31t23.5 34t7.5 32zM248 372q-16 -6 -38.5 -13.5t-33.5 -15.5q-14 -9 -16 -19q0 -6 5.5 -11t13.5 -9q4 -2 12 -5.5t17 -7t17 -7t13 -5.5q1 7 2.5 19t2.5 25.5t2.5 26.5t2.5 22zM497 422 q-3 -8 -12 -14.5t-21 -6.5q-11 0 -19.5 4t-13.5 9q-20 0 -55 -6.5t-67 -16.5q-1 -14 -2.5 -31.5t-3 -35.5t-4 -35.5t-4.5 -29.5q14 -6 30 -13.5t26 -14.5q25 -16 36.5 -32.5t11.5 -41.5q0 -61 -59 -120q-14 -15 -32 -31.5t-38 -27.5q-2 -14 -2.5 -28t3.5 -28q5 -5 7.5 -9.5 t7.5 -8.5q11 -14 4 -30q-5 -8 -13.5 -12.5t-21.5 -2.5q-34 3 -42 44q-2 8 -2 20v23q-13 -7 -27 -10.5t-27 -5.5q-11 -1 -26.5 1t-30.5 9q-16 7 -18 19.5t3 23.5q4 9 15.5 14.5t23.5 0.5q10 -5 17.5 -7.5t17.5 -0.5q9 2 25 8t28 14q0 19 2 44t5 52t6.5 55.5t6.5 54.5l-20 7.5 t-24 10t-23 10t-18 7.5q-29 11 -43 28.5t-15 37.5q0 18 12.5 36.5t38.5 34.5q10 6 24 12t29.5 12t31 11t28.5 10q4 28 5.5 56t2.5 48q1 14 10 22t20 8t20 -7.5t9 -22.5t-1.5 -40t-3.5 -45q32 8 65 14.5t59 5.5q16 0 28.5 -4.5t19.5 -10.5q9 -7 11.5 -17t-1.5 -20z" />
<glyph unicode="%" horiz-adv-x="706" d="M628 33q-2 15 -5 31t-10 31.5t-19.5 29t-33.5 22.5q-10 -8 -23 -21t-25 -30t-21.5 -38.5t-12.5 -47.5q-4 -43 49 -39q14 2 35.5 4.5t36.5 7.5q16 5 24.5 16.5t4.5 33.5zM278 279q-2 15 -5 31t-10 31.5t-19.5 29t-33.5 22.5q-10 -8 -23 -21t-25 -30t-21.5 -38.5 t-12.5 -47.5q-4 -43 49 -39q14 2 35.5 4.5t36.5 7.5q16 5 24.5 16.5t4.5 33.5zM685 47q6 -53 -12.5 -79.5t-52.5 -37.5q-20 -7 -45.5 -10.5t-44.5 -5.5q-56 -5 -86.5 20t-22.5 84q5 35 20.5 66.5t36.5 58.5t44.5 48t44.5 35q12 8 24 7t19 -6q15 -12 5 -28q-2 -3 -4.5 -5.5 t-4.5 -6.5q41 -26 58 -63t21 -77zM565 421q-5 -20 -27.5 -60.5t-53.5 -90.5t-65.5 -104t-64.5 -102t-50.5 -84t-22.5 -49q-3 -16 -12.5 -21t-20.5 -3q-9 2 -15.5 9.5t-7.5 19.5q-1 15 13.5 46t38.5 71.5t54.5 87t60.5 93t57 89t45 74.5q0 17 4 29.5t11 22.5q8 11 19 15.5 t21 1.5q10 -4 15.5 -15t0.5 -30zM335 293q6 -53 -12.5 -79.5t-52.5 -37.5q-20 -7 -45.5 -10.5t-44.5 -5.5q-56 -5 -86.5 20t-22.5 84q5 35 20.5 66.5t36.5 58.5t44.5 48t44.5 35q12 8 24 7t19 -6q15 -12 5 -28q-2 -3 -4.5 -5.5t-4.5 -6.5q41 -26 58 -63t21 -77z" />
<glyph unicode="&#x26;" horiz-adv-x="446" d="M260 -88q0 -17 -4.5 -27t-6.5 -19q-2 -18 -12.5 -26t-23.5 -8t-23.5 8.5t-9.5 25.5q0 17 5.5 27t5.5 19q0 19 13 27.5t27 6.5q11 -2 20 -10t9 -24zM410 27q8 -12 6 -26.5t-16 -22.5q-19 -11 -42.5 -17.5t-50 -9t-54 -3t-55.5 0.5q-53 1 -87 14t-52 34.5t-20 49.5t10 59 q12 29 35.5 50t47.5 33q9 5 18 8.5t19 6.5q-12 8 -23.5 18.5t-16.5 22.5q-8 20 -2 42.5t22.5 41t42.5 31t58 12.5t59 -5.5t46 -16.5q17 -8 18.5 -22.5t-6.5 -25.5q-15 -19 -41 -13q-15 5 -31 9.5t-45 4.5q-26 0 -38 -12.5t-9 -22.5q4 -14 22.5 -21.5t35.5 -16.5 q11 -5 16 -14.5t5 -20.5q1 -11 -4.5 -20t-17.5 -14q-16 -6 -40.5 -13t-51.5 -18q-17 -6 -31.5 -19t-19.5 -30q-8 -26 8 -42t73 -19q21 -2 44 -2q24 0 47 1.5t42 5.5t31 12q16 11 28.5 6t19.5 -16zM320 479q-2 -20 -6.5 -35t-6.5 -30q-1 -17 -12 -25.5t-24 -8.5 q-14 0 -23.5 8.5t-10.5 25.5q-1 22 5.5 37t6.5 28q1 19 12.5 28t25.5 7q14 -1 23.5 -9.5t9.5 -25.5z" />
<glyph unicode="'" horiz-adv-x="152" d="M102 619v-27v-39q0 -20 -0.5 -39.5t-0.5 -32.5q0 -14 -9 -21.5t-21 -7.5q-11 0 -20 7t-9 22q0 24 0.5 54t0.5 46q-5 3 -6.5 8.5t-0.5 11.5t3.5 12.5t4.5 11.5q11 22 33 22q9 -1 16.5 -7.5t8.5 -20.5z" />
<glyph unicode="(" horiz-adv-x="451" d="M500 682q8 -7 9 -19t-10 -22q-64 -60 -117.5 -124t-92 -129t-60 -129t-21.5 -124q0 -86 46 -140t145 -80q16 -4 22 -13.5t4 -23.5q-2 -11 -12 -18.5t-28 -3.5q-122 25 -180 99.5t-58 178.5q0 75 26.5 149t70 144.5t99 134.5t112.5 120q12 13 24.5 11.5t20.5 -11.5z" />
<glyph unicode=")" horiz-adv-x="451" d="M399 414q0 -75 -27 -149t-70.5 -144.5t-98.5 -135t-112 -119.5q-12 -13 -24.5 -11.5t-20.5 11.5q-8 7 -9 19t10 22q64 60 117.5 124t92 129t60 129t21.5 124q0 86 -46 140t-145 80q-16 4 -22 13.5t-4 23.5q2 11 12 18.5t28 3.5q61 -12 106 -38t74 -62t43.5 -81t14.5 -97z " />
<glyph unicode="*" horiz-adv-x="322" d="M384 545q5 -8 3 -18.5t-13 -21.5q-7 -6 -16 -10t-20 -2q-7 -4 -18 -8.5t-22.5 -8.5t-21.5 -7.5t-16 -6.5q7 -4 21 -11.5t29 -16.5t28 -18t18 -15q8 -11 7 -20t-7 -16q-8 -7 -15 -8.5t-15 -0.5q-12 2 -22 10.5t-13 19.5q-6 4 -13.5 10.5t-15 13.5t-14.5 12.5t-11 8.5 q0 -6 0.5 -16.5t1 -21.5t1.5 -21.5t1 -16.5q5 -8 6 -17t0 -16q-3 -15 -12.5 -22t-20.5 -7q-13 1 -22.5 9.5t-9.5 25.5q0 10 2 24t4.5 28t4.5 27t3 22q-4 -2 -11 -7.5t-15.5 -12t-17.5 -13.5t-15 -11q-1 -11 -10.5 -19.5t-22.5 -10.5q-26 -3 -37 17q-5 9 -2.5 20.5t14.5 20.5 q6 4 19 10.5t28 13.5t29.5 14t24.5 13q-4 2 -11.5 5t-16.5 6.5t-17.5 7.5t-14.5 7q-12 -3 -24 0.5t-19 14.5q-6 9 -6 18q0 10 5 18q6 10 17 13t25 -3q10 -4 21.5 -11.5t22.5 -15.5t21.5 -15.5t17.5 -11.5q1 10 1 26v34t0.5 32.5t2.5 23.5q2 14 11 19t19 5q12 0 20.5 -7.5 t7.5 -20.5q-2 -10 -5 -25.5t-6 -32t-5.5 -31.5t-3.5 -24q8 5 21.5 13.5t27.5 17.5t28 16.5t23 11.5q14 6 25 2t16 -12z" />
<glyph unicode="+" horiz-adv-x="397" d="M205 150q-10 -1 -19 6t-11 22q-2 20 -2 51q0 32 1 64q-25 1 -45 1q-19 0 -27 -2q-5 0 -11 -4.5t-11 -7.5q-8 -5 -17 -4t-16 7q-14 10 -11 30q3 14 13.5 24t24.5 13t41.5 3.5t59.5 -1.5v26q0 12 -1 18q0 5 -4.5 11t-7.5 11q-5 8 -4 17t7 16q10 14 30 11q14 -3 24 -13.5 t13 -24.5q2 -11 3 -31t0 -43q26 -1 47.5 -1.5t35.5 1.5t22 -7t8 -20q1 -10 -6 -19t-22 -11q-16 -2 -39 -2h-48q-2 -33 -2.5 -63.5t1.5 -47.5q2 -14 -7 -22t-20 -8z" />
<glyph unicode="," horiz-adv-x="177" d="M142 22q1 -17 1 -40t-2.5 -49.5t-10 -55t-21.5 -55.5q-7 -13 -18 -15t-21 2q-11 5 -16.5 16t2.5 23q9 16 14 36.5t8 40t4 35t1 23.5q-5 1 -6.5 6.5t0 12t4 13t4.5 11.5q5 11 14 16t17 4q10 0 18 -6t8 -18z" />
<glyph unicode="-" horiz-adv-x="502" d="M448 191q1 -10 -6 -19t-22 -11q-21 -2 -54 -2t-66 0.5t-60.5 1t-37.5 -1.5q-5 0 -11 -4.5t-11 -7.5q-8 -5 -17 -4t-16 7q-14 10 -11 30q3 14 13.5 24t24.5 13q16 4 49 4t70 -1.5t71 -2.5t54 1q14 2 22 -7t8 -20z" />
<glyph unicode="." horiz-adv-x="173" d="M135 -32q-16 -11 -36 -10.5t-34 16.5t-14 38q0 23 20 39q15 11 33.5 10t30.5 -10q10 -7 14.5 -18.5t4.5 -23.5t-4.5 -23t-14.5 -18z" />
<glyph unicode="/" horiz-adv-x="551" d="M637 616q-3 -21 -24.5 -59t-55.5 -86t-77 -103.5t-87.5 -112t-88 -111.5t-79 -102t-59 -83.5t-28.5 -55.5q-5 -17 -13 -19.5t-21 1.5q-25 5 -22 34q2 23 29 67t70 101t96 123t106.5 133t102 131t81.5 117q0 17 2.5 31.5t9.5 25.5q10 17 19.5 21t22.5 2q11 -2 15 -17 t1 -38z" />
<glyph unicode="0" horiz-adv-x="660" d="M549 107q13 25 -8 62q-26 43 -60.5 76.5t-71.5 50.5q-54 24 -134 27q-17 -17 -36.5 -41.5t-36 -54t-27.5 -60.5t-12 -61t6.5 -50t19.5 -32q19 -18 50.5 -19.5t69.5 9.5q19 5 43 11t48.5 12t47 13t39.5 13q23 8 39 19t23 25zM621 73q-27 -53 -106 -79q-21 -7 -45.5 -14 t-50 -13.5t-49 -12.5t-42.5 -12q-60 -19 -112.5 -12t-85.5 39q-24 23 -36 58.5t-7 83.5q4 41 18 79.5t33 72.5t40.5 61.5t40.5 46.5q0 10 6.5 16t15.5 6q11 11 26 24.5t24 20.5q17 11 29 8.5t22 -9.5q8 -7 11 -17.5t-2 -15.5q-2 -2 -6.5 -6t-8.5 -7q30 -5 59.5 -12.5 t52.5 -18.5q30 -14 54 -32.5t43 -39.5t33 -41.5t25 -37.5q23 -36 27.5 -71.5t-9.5 -64.5z" />
<glyph unicode="1" horiz-adv-x="376" d="M320 36q0 -14 -9 -25t-27 -13q-10 -1 -20.5 -0.5t-21.5 -0.5q-7 -13 -22.5 -13.5t-22.5 10.5q-2 -2 -9 -2q-6 0 -14 -2q-6 -6 -14 -8t-15 -1q-31 5 -39 31q-5 14 0 27.5t22 19.5q11 4 26.5 6t26.5 2q0 32 2.5 75t6.5 86.5t8 83t8 65.5q1 8 -3 10t-9 0q-8 -5 -16.5 -9.5 t-16.5 -7.5q-10 -2 -19 3.5t-14 13.5q-7 12 -5 26t19 22q6 3 16 9t21.5 13t22.5 14t18 11q12 7 25 6.5t23.5 -6.5t16 -16.5t4.5 -22.5q-4 -36 -9.5 -86t-10.5 -102.5t-9 -101t-6 -81.5q17 1 29 -1.5t22 -7.5q15 -8 15 -27z" />
<glyph unicode="2" horiz-adv-x="602" d="M598 23q-2 -11 -10 -21.5t-22 -16.5q-13 -5 -27.5 -1t-22.5 10q-41 2 -89.5 0.5t-99.5 -6t-101 -10.5t-94 -12q-18 -2 -31.5 6t-19.5 21q-8 14 -4.5 30.5t20.5 28.5q34 24 70 51.5t69 55.5t61 55t48 48q20 23 23.5 43t-16.5 35q-8 8 -24 17.5t-33 13.5q-7 1 -21.5 3 t-31.5 3t-34.5 1.5t-30.5 0.5q-19 1 -28.5 12.5t-9.5 25.5q-1 13 7.5 24t25.5 12q21 2 43.5 1.5t43.5 -2.5t38 -5t26 -6q26 -8 50 -23t35 -23q45 -35 40.5 -82.5t-46.5 -96.5q-32 -38 -82.5 -81t-102.5 -85q43 6 89 10t90 6.5t85 3t73 -2.5q23 -2 34 -15t10 -29z" />
<glyph unicode="3" horiz-adv-x="522" d="M473 80q0 -30 -12 -61.5t-36 -61.5q-27 -34 -64.5 -64.5t-80 -56t-88 -45.5t-87.5 -33q-18 -5 -32 2t-19 21q-7 13 -2 28t26 22q34 12 74 28.5t79 38.5t73 48.5t57 56.5q16 23 24 41.5t7 35.5q0 47 -64 67q-12 4 -29.5 4.5t-35.5 -0.5t-36 -2.5t-31 -2.5q-18 -2 -31 6 t-18 19q-6 12 -1.5 25.5t22.5 24.5q17 11 39.5 26.5t45.5 33t44 34.5t36 31q20 21 15.5 36t-45.5 17q-22 1 -44 -1t-43 -6t-39 -9t-31 -11q-19 -7 -32.5 -2.5t-21.5 15.5q-8 13 -6.5 29t18.5 24q18 8 42.5 15t52 12t57 7.5t57.5 1.5q49 -2 78.5 -16.5t41.5 -36.5 q14 -24 5 -54t-37 -59q-18 -19 -48 -43.5t-63 -45.5q20 0 42 -1.5t45 -9.5q48 -18 71.5 -52t24.5 -76z" />
<glyph unicode="4" horiz-adv-x="647" d="M402 344q-55 -35 -109 -72.5t-111 -79.5q-3 -2 -2 -4t4 -2q54 2 104 3.5t104 2.5q5 42 6.5 78.5t3.5 73.5zM654 163q0 -14 -8.5 -25t-26.5 -13q-34 -2 -75 -3.5t-82 -2.5q-4 -48 -6.5 -103.5t-2.5 -109.5q14 -14 11 -29.5t-11 -26.5q-18 -24 -38 -24q-15 0 -25.5 12 t-11.5 38q-1 29 -0.5 53.5t1.5 51.5t3 59.5t5 76.5q-75 -2 -148.5 -5t-143.5 -3q-17 0 -28 8t-16 20q-5 13 -3.5 26.5t12.5 24.5q13 14 38 34.5t57 43.5t67 48t69 48t63.5 41.5t49.5 30.5q5 16 18.5 23t27.5 5q13 -2 22.5 -12t9.5 -27q-2 -47 -5 -109t-7 -120q35 2 74 3 t72 3q19 1 28.5 -10.5t9.5 -26.5z" />
<glyph unicode="5" horiz-adv-x="529" d="M464 217q17 -30 10.5 -69t-29.5 -87q-20 -42 -54 -93.5t-77.5 -105t-94.5 -106t-105 -96.5q-14 -11 -29 -9t-24 13q-11 10 -11 25t15 28q50 42 97.5 91t88 99.5t72.5 99t52 89.5q24 50 11 78q-14 29 -66 39q-23 4 -50.5 2t-52.5 -8t-42.5 -15t-19.5 -18q-4 -13 -15 -19 t-23 -5q-15 1 -26 10.5t-11 27.5q-1 29 3 68.5t6 76.5q0 19 12 28t27 9q14 0 25 -9.5t11 -27.5q0 -22 -2 -38.5t-2 -30.5q16 8 37 14t44.5 9.5t46.5 3.5q24 0 46 -4q54 -9 85 -26.5t45 -43.5zM534 434q0 -14 -9 -25.5t-28 -11.5h-76t-95.5 1t-96 2.5t-79.5 3.5q-18 1 -27 12 t-9 24q-1 14 8.5 26.5t28.5 10.5q35 -1 81.5 -2t94.5 -2t93 -1.5t77 -0.5q19 0 28 -11.5t9 -25.5z" />
<glyph unicode="6" horiz-adv-x="722" d="M611 131q20 23 18.5 42.5t-20.5 36.5q-10 9 -25 13.5t-31.5 4t-33.5 -6t-32 -16.5q-29 -23 -59 -68.5t-64 -125.5q24 7 58.5 19t70.5 27.5t68 34t50 39.5zM665 77q-36 -34 -84 -60t-96.5 -45t-91.5 -31.5t-67 -18.5q-11 -18 -30 -18.5t-28 13.5q-45 -5 -82 6t-63 35 q-34 32 -41.5 88.5t20.5 134.5q17 46 40 99t49.5 105t53.5 99t52 81q13 17 29 17.5t29 -7.5q11 -8 16.5 -23.5t-3.5 -32.5q-5 -11 -13 -17.5t-19 -11.5q-19 -31 -40 -68t-42.5 -78.5t-41.5 -86.5t-36 -93q-20 -57 -17 -94t23 -57q30 -28 94 -19q35 97 77.5 167t89.5 103 q54 38 109 39t101 -31q23 -15 37.5 -38.5t17.5 -50t-7 -54t-36 -52.5z" />
<glyph unicode="7" horiz-adv-x="506" d="M523 434q11 -23 -14 -53q-28 -34 -59 -77t-62.5 -91t-60.5 -98t-54.5 -99t-44.5 -94t-29 -82q5 -14 4.5 -28t-6.5 -23q-9 -14 -24 -19t-29 -1q-16 5 -25.5 21.5t-1.5 43.5q19 69 53 142.5t73.5 144t82 134t79.5 112.5q7 10 5 16.5t-19 6.5q-32 1 -60.5 1.5t-59.5 0.5 q-30 0 -65 -1.5t-79 -4.5q-11 -8 -22.5 -11t-22.5 -2q-17 -1 -31.5 9.5t-20.5 24.5q-6 15 2 30t38 20q34 4 84.5 6.5t105.5 2.5q56 0 111 -1t97 -4q24 -1 37 -8.5t18 -18.5z" />
<glyph unicode="8" horiz-adv-x="691" d="M573 44q3 27 -11.5 51.5t-43 42t-68 26t-86.5 3.5q-39 -4 -71 -10.5t-57.5 -20t-45 -36.5t-33.5 -59q-7 -18 3 -35t29 -27q32 -16 81 -22.5t95 -2.5q36 3 72.5 11t66 19.5t48.5 26.5t21 33zM507 314q2 19 -9 37.5t-30 33t-43.5 23t-50.5 8.5q-24 0 -47.5 -10.5t-43 -26.5 t-33.5 -35t-18 -36q-4 -15 -2.5 -28t15 -22t41 -13t75.5 -1q64 5 103.5 20.5t42.5 49.5zM649 29q-9 -41 -38.5 -67.5t-70 -43t-85.5 -25.5t-84 -13q-24 -3 -52.5 -2.5t-57.5 4.5t-57 12t-52 20q-20 10 -37.5 24t-28.5 32t-13.5 40.5t7.5 49.5q8 22 21.5 43t30.5 40t36 33.5 t39 22.5q-45 15 -56 49t9 84q9 24 29 51.5t47.5 51.5t62.5 39.5t75 15.5q37 0 76.5 -13.5t70.5 -38t49.5 -59t14.5 -75.5q-3 -31 -20.5 -53.5t-43.5 -33.5q33 -14 59.5 -34.5t44 -45t24 -52.5t0.5 -56z" />
<glyph unicode="9" horiz-adv-x="622" d="M493 255q5 35 0.5 64.5t-15.5 46.5q-17 25 -41.5 40t-62.5 15q-43 0 -97 -18t-102 -55q-20 -16 -34.5 -39t-14.5 -37t9 -26t35 -21q33 -11 74.5 -14t85 1.5t86 15t77.5 27.5zM577 238q-2 -9 -6 -18t-15 -14q-13 -55 -38.5 -113.5t-57.5 -116t-69 -111t-74 -99.5 q-13 -13 -28 -13q-14 0 -27 11q-8 7 -10 22.5t7 26.5q30 37 60.5 81.5t58.5 92t51 93.5t38 86q-80 -27 -164.5 -30.5t-159.5 18.5q-100 30 -99 113q1 38 25 74t59 64q55 44 122 67t128 23q57 0 98.5 -25.5t65.5 -62.5q17 -28 24 -66.5t2 -77.5q7 -5 8.5 -12t0.5 -13z" />
<glyph unicode=":" horiz-adv-x="188" d="M157 -32q-17 -11 -36.5 -10t-33.5 16q-15 16 -14 39.5t21 37.5q13 11 31 11t32 -11q10 -8 15.5 -19t5.5 -23t-5.5 -23t-15.5 -18zM163 246q10 -8 15 -19.5t5 -23.5t-5 -23t-16 -18q-17 -11 -36.5 -10t-33.5 16q-14 16 -13.5 40t20.5 38q14 10 32 10q19 0 32 -10z" />
<glyph unicode=";" horiz-adv-x="276" d="M247 22q1 -17 1 -40t-2.5 -49.5t-10 -55t-21.5 -55.5q-7 -13 -18 -15t-21 2q-11 5 -16.5 16t2.5 23q9 16 14 36.5t8 40t4 35t1 23.5q-5 1 -6.5 6.5t0 12t4 13t4.5 11.5q5 11 14 16t17 4q10 0 18 -6t8 -18zM242 246q20 -17 20.5 -43.5t-21.5 -40.5q-17 -11 -36.5 -10 t-33.5 16q-14 16 -13 39.5t21 38.5q14 10 31 10q18 0 32 -10z" />
<glyph unicode="&#x3c;" horiz-adv-x="547" d="M441 512q7 0 21 -2t24 -14q22 -28 -16 -57q-24 -18 -62 -43t-82.5 -55t-92 -64t-92.5 -70q-18 -14 1 -25q81 -48 169 -90t194 -90q13 -5 18 -15.5t5 -17.5v-9q-3 -24 -20 -30t-34 1q-42 19 -97 44.5t-113 53.5t-113.5 57.5t-99.5 57.5q-12 7 -18 18.5t-6 23.5 q0 13 5.5 24.5t16.5 18.5q49 41 91 71t81 57t79 53.5t87 61.5q9 18 23 29t31 11z" />
<glyph unicode="=" horiz-adv-x="445" d="M388 334q1 -10 -6 -19t-22 -11q-21 -2 -54 -2t-66 1t-60.5 1.5t-37.5 -1.5q-5 0 -11 -4.5t-11 -7.5q-8 -5 -17 -4t-16 7q-14 10 -11 30q3 14 13.5 24t24.5 13q16 4 49 3.5t70 -2t71 -2.5t54 1q14 2 22 -7t8 -20zM391 190q1 -10 -6 -19t-22 -11q-21 -2 -54 -2t-66 1 t-60.5 1.5t-37.5 -1.5q-5 0 -11 -4.5t-11 -7.5q-8 -5 -17 -4t-16 7q-14 10 -11 30q3 14 13.5 24t24.5 13q16 4 49 3.5t70 -2t71 -2.5t54 1q14 2 22 -7t8 -20z" />
<glyph unicode="&#x3e;" horiz-adv-x="549" d="M111 513q17 0 31 -11t23 -29q46 -35 86.5 -61.5t79.5 -53.5t80.5 -57t91.5 -71q10 -7 16 -18.5t6 -24.5q0 -12 -6 -23.5t-18 -18.5q-44 -28 -99.5 -57.5t-113.5 -57.5t-113 -53.5t-97 -44.5q-17 -7 -34 -1t-20 30v9q0 7 5 17.5t18 15.5q106 48 194 90t169 90q19 11 1 25 q-45 36 -92.5 70t-92 64t-82.5 55t-62 43q-38 29 -16 57q10 12 24 14t21 2z" />
<glyph unicode="?" horiz-adv-x="417" d="M267 55q10 -8 15 -19t4.5 -23t-5.5 -23t-15 -18q-16 -11 -36 -10.5t-34 16.5t-13.5 38.5t20.5 38.5q14 11 32.5 10t31.5 -10zM459 479q0 -47 -47 -88q-71 -63 -122 -113t-65 -76q1 -21 -3 -37q-2 -11 -10 -17.5t-17.5 -8t-19 2t-15.5 11.5q-11 16 -7.5 41t17.5 48 q13 21 35 44.5t48 48.5t54 51.5t55 53.5q20 18 20 35q-2 22 -36 36q-26 11 -63.5 24t-67.5 24q-11 -2 -26 2.5t-30 15.5q-14 13 -15 27t6 25q8 10 21.5 14.5t32.5 -2.5q47 -19 91 -34.5t78 -26.5q45 -15 66.5 -42.5t19.5 -58.5z" />
<glyph unicode="@" horiz-adv-x="903" d="M322 -190v-1q1 0 1 -1q-1 0 -1.5 -0.5t-1.5 -0.5q-90 -23 -157 -24.5t-107 34.5q-24 21 -37 54.5t-13.5 77t11 95t36.5 108.5q28 62 66.5 127.5t83 127t93.5 114.5t97 91q92 71 170 71q59 3 107 -28t82 -85q15 -24 29.5 -52.5t27 -58t23.5 -58.5t18 -55q12 -44 15 -88 t-5 -84.5t-30 -77.5t-59 -67q-11 -9 -30.5 -21t-64.5 -35q-44 -4 -67.5 5t-40.5 35q-7 9 -12.5 27t-5.5 32q-1 8 -7.5 9.5t-14.5 -4.5q-11 -7 -26.5 -19.5t-33 -27.5t-35.5 -31t-34 -29q-38 -29 -71 -30.5t-54 17.5q-26 23 -26 69q1 22 7 43.5t16 41.5q15 30 37 59 t46.5 54.5t49.5 46t46 34.5q18 12 41 25.5t49.5 20t55.5 2.5t58 -28q13 -11 14 -24t-5 -24q-8 -14 -25.5 -18.5t-33.5 5.5q-23 18 -50.5 13.5t-64.5 -29.5q-18 -12 -40.5 -31.5t-43.5 -42.5t-39.5 -47.5t-29.5 -47.5q-6 -12 -8 -29t6 -23q11 -9 32 9q15 13 37.5 32 t46.5 38.5t47.5 37.5t41.5 29q15 9 30.5 12.5t27.5 0.5t19 -13t7 -27q-1 -20 0.5 -37.5t6.5 -30.5q6 -17 16.5 -23t27.5 -5q12 1 25 10t26.5 22t26.5 29t25 33q23 42 22.5 84.5t-13.5 96.5q-6 24 -17 54.5t-24.5 62.5t-28.5 61t-30 50q-28 37 -57 60t-64 23 q-26 0 -55.5 -13.5t-64.5 -42.5q-43 -35 -89.5 -87.5t-91.5 -115.5t-85.5 -132t-71.5 -136q-22 -49 -31 -86t-7.5 -65t12 -48t27.5 -34q27 -21 65.5 -27.5t89.5 7.5l-1 1q8 17 20.5 22.5t25.5 3.5q10 -2 16.5 -9t11.5 -16q5 -12 3.5 -24.5t-16.5 -24.5z" />
<glyph unicode="A" horiz-adv-x="702" d="M523 201q-35 81 -64.5 167.5t-61.5 165.5q-21 -42 -46 -93.5t-50.5 -105.5t-51 -107.5t-47.5 -99.5q36 8 76 17t81.5 18.5l83 19t80.5 18.5zM704 17q11 -15 10 -30t-12 -23q-14 -10 -31.5 -8.5t-29.5 17.5q-8 10 -18 26t-20 34t-19.5 35.5t-15.5 31.5q-3 7 -8 16.5 t-11 20.5q-106 -26 -201.5 -47.5t-184.5 -42.5q-8 -17 -17.5 -36.5t-20.5 -39.5q0 -10 -5 -24t-23 -23q-10 -5 -24 -5q-13 0 -21 8q-13 12 -13 25t7 27q5 11 11 22.5t14 22.5q-19 -2 -36 4.5t-18 26.5q0 4 1.5 10.5t5.5 13t11 11t19 4.5q13 3 27 6t26 8q19 37 42.5 84.5 t48 99l49 103t46 96.5t39 79.5t28.5 51.5q0 13 9.5 24t27.5 12q13 1 23 -4t16 -19q22 -52 43.5 -109.5t42.5 -113t40.5 -105.5t36.5 -87q13 2 24 4.5t20 4.5q11 2 23.5 -3.5t17.5 -28.5q0 -8 -5 -19.5t-19 -16.5q-7 -2 -15.5 -4.5t-16.5 -4.5q3 -7 7 -15l8 -16 q5 -10 13 -24.5t17 -29.5t17 -28.5t14 -21.5z" />
<glyph unicode="B" horiz-adv-x="709" d="M678 106q1 -39 -17 -80.5t-61 -83.5q-32 -30 -70 -58t-80.5 -51.5t-87 -41.5t-87.5 -29q-24 -5 -50 -4.5t-45 19.5q-14 14 -13.5 29.5t11.5 26.5q8 8 19.5 11t23.5 -5q7 -5 17.5 -4.5t23.5 3.5q31 7 70 22t78.5 36t75.5 47t61 54q54 60 54 105q0 26 -15.5 49t-47.5 46 q-10 7 -27.5 12.5t-38.5 9t-44 5t-45 1.5q-26 0 -41.5 9.5t-25.5 30.5q-7 16 -3 32.5t20 27.5q35 25 73 44t82 50q31 25 25 42q-6 16 -44 22q-18 2 -46.5 5.5t-61.5 8t-67.5 9.5t-64.5 10q0 -46 -2.5 -101t-5 -111.5t-4 -110t0.5 -96.5q0 -24 23 -36q17 -11 20 -26t-4 -28 q-7 -11 -20 -16t-30 1q-22 9 -41.5 31t-21.5 60q-3 46 -2 104.5t3.5 118.5t5.5 118t4 104q-23 4 -45.5 9.5t-43.5 11.5t-38 13t-29 14q-17 10 -18 25.5t7 27.5q8 11 22 16t30 -5q13 -8 38 -15.5t58.5 -15t73.5 -15t83 -13.5q52 -8 100.5 -13.5t87.5 -10.5q54 -8 85.5 -27 t39.5 -45t-6.5 -56t-50.5 -57q-30 -22 -52.5 -35.5t-48.5 -27.5q-9 -5 -8 -11t12 -8q13 -1 30 -2.5t34 -5t34 -9.5t32 -15q45 -29 70 -66.5t26 -85.5z" />
<glyph unicode="C" horiz-adv-x="646" d="M633 -12q5 -17 -2.5 -31.5t-28.5 -19.5q-101 -25 -184 -28.5t-149 8.5q-64 13 -98.5 38t-50.5 63q-11 25 -14 54.5t0.5 61t12.5 63.5t22 63q22 53 60 106t84.5 100t97 85.5t97.5 62.5q20 10 33 10t20 -7q11 -11 11 -29t-10 -35q-9 -15 -20.5 -20.5t-28.5 -3.5 q-35 -20 -76 -52.5t-79.5 -72t-70.5 -85t-49 -91.5q-8 -23 -15 -46.5t-10 -46t-2 -43.5t9 -39q10 -23 31.5 -39t62.5 -23q29 -5 60.5 -7t68 0t78.5 9t92 20q38 9 48 -25z" />
<glyph unicode="D" horiz-adv-x="674" d="M674 278q4 -29 -16 -65.5t-52 -73.5t-69.5 -70.5t-69.5 -55.5q-50 -35 -106.5 -66t-119.5 -64q-17 -9 -30.5 -4t-21.5 17q-7 13 -3.5 28.5t20.5 24.5q63 33 118.5 63.5t99.5 62.5q25 18 54.5 45t55 56t42.5 57t17 49q0 30 -22.5 58t-67.5 58q-24 16 -58 36.5t-71.5 42 t-76.5 42.5t-73 40q-6 -75 -13.5 -154.5t-14 -148t-11 -119t-4.5 -68.5q0 -12 7 -26t11 -24q8 -16 2 -26.5t-17 -16.5q-14 -5 -30 -1.5t-25 20.5q-6 11 -14.5 30t-8.5 43q0 15 2 46t6 72.5t8.5 92t10 104t10.5 108t9 105.5q-8 5 -18 10t-19 8q-11 0 -21 5.5t-17 16.5 q-9 12 -8 24t9 20q9 10 24 13.5t33 -4.5q60 -32 121.5 -65t116.5 -63.5t99 -56.5t70 -43q133 -86 132 -183z" />
<glyph unicode="E" horiz-adv-x="664" d="M644 32q-20 -24 -49 -41t-64 -29q-25 -9 -59.5 -18.5t-72 -16.5t-75.5 -12t-69 -5q-27 -1 -48 9t-36 33q-13 19 -20 46t-7 61q0 14 3 34t7.5 41t9 40.5l7.5 32.5q-10 -2 -27 -3.5t-25 0.5q-20 -1 -31 9t-12 24q0 19 21 36q10 8 25 10t26 -4q11 1 23 2.5t23 3.5 q16 44 28 88t15 71q1 11 0.5 20t-2.5 16q-17 -5 -39.5 -11.5t-42.5 -13.5q-19 -7 -30.5 0.5t-15.5 20.5t2.5 28t23.5 22q60 23 124 35t126.5 17.5t119.5 6t102 -0.5q20 0 30 -12.5t8 -25.5q-1 -14 -10.5 -25t-27.5 -9q-73 3 -150 -0.5t-144 -16.5q4 -8 4.5 -17.5t-0.5 -20.5 q-2 -34 -13.5 -76.5t-24.5 -84.5q38 6 79 12.5t80 13.5t74 13.5t60 12.5q16 4 26 -5t12 -23q2 -13 -4 -26.5t-24 -18.5q-25 -6 -66.5 -14t-88 -16t-92.5 -15.5t-79 -12.5q-14 -42 -23 -82.5t-10 -75.5q-1 -19 2.5 -35t11.5 -25q14 -13 36 -11q45 2 109 13t124 31 q26 9 46.5 20t36.5 30q13 13 27 13q15 0 26 -9q10 -8 13 -24t-9 -30z" />
<glyph unicode="F" horiz-adv-x="607" d="M687 522q-12 -17 -33 -18q-10 0 -23.5 5t-21.5 14q-20 1 -58 0t-88 -2.5t-110 -2t-123 0.5q1 -41 3 -81t5 -79q28 1 67 3.5t79.5 6t77.5 7.5t61 7q21 3 38 11q14 8 26 4.5t20 -11.5q10 -12 9.5 -29.5t-16.5 -29.5q-13 -9 -30.5 -13t-37.5 -8q-27 -4 -63.5 -7.5t-76 -6.5 t-79.5 -6t-73 -4q1 -28 2.5 -69t3.5 -86t4 -89.5t4 -80.5q2 -19 -10 -28t-26 -9t-27 9t-13 26q-2 38 -4.5 81.5t-5 86.5t-4 83t-1.5 73q-16 1 -30 5q-12 5 -18 14t-7 19q-1 8 4 16t14 12q8 3 17 6t17 5q-1 29 -3 74t-4 88q-8 0 -23.5 -0.5t-24.5 0.5q-12 -14 -42 -5 q-21 7 -31.5 20.5t-11.5 27.5q0 16 13.5 27t39.5 9q54 -5 128.5 -6t150.5 0.5t145 3.5t113 2q22 0 42 -5.5t28 -14.5q13 -15 14 -30t-7 -26z" />
<glyph unicode="G" horiz-adv-x="759" d="M788 349q8 -14 3.5 -29.5t-22.5 -23.5q-12 -5 -30 -7.5t-37.5 -3.5t-38.5 -1t-32 1v-207q15 -3 15.5 -20.5t-15.5 -36.5v-218q0 -22 -11 -33.5t-26 -11.5q-11 0 -22.5 6t-19.5 19q-6 8 -7 21t10 21v153q-65 -28 -121 -47t-118 -27q-60 -9 -106 -0.5t-75 36.5 q-26 26 -37.5 70t-3.5 108q5 46 27 101.5t54 113.5t70.5 114t77.5 103t74 81t61 48q17 10 30.5 7.5t22.5 -12.5q7 -7 9 -16.5t0 -19.5q-3 -13 -11 -22t-27 -11q-20 -12 -49 -42t-62 -71.5t-66.5 -90.5t-61.5 -100t-47 -100.5t-24 -90.5q-7 -81 24 -111q17 -17 45 -21t66 1 q28 4 59.5 12t64 19t64.5 24t61 27v224q-20 0 -44.5 0.5t-48.5 1.5t-45 0.5t-33 -1.5q-5 -3 -15.5 -7t-21.5 -3q-14 2 -23.5 10t-14.5 19q-5 13 1 26t24 21q14 6 42.5 8t65 1.5t77.5 -2.5t80 -2q52 0 88.5 1.5t47.5 6.5q18 6 32 0.5t20 -16.5z" />
<glyph unicode="H" horiz-adv-x="732" d="M708 194q0 -14 -9.5 -24.5t-26.5 -10.5h-65q-2 -45 -2.5 -95.5t-2.5 -93.5q-2 -23 -11.5 -34t-23.5 -12q-12 0 -24 8.5t-19 25.5q-6 17 -5 36.5t8 33.5q0 32 1 62t3 68q-77 0 -149.5 -2t-130.5 -1q-2 -25 -4 -42t-3 -31t-1.5 -27.5t-0.5 -31.5q4 -8 7.5 -16t5.5 -21 q2 -16 -5 -27.5t-18 -16.5q-16 -8 -34 -1.5t-26 29.5q-11 29 -7 75.5t10 109.5h-35t-34 2q-21 2 -31 11t-10 22t9.5 25t28.5 19q9 4 20.5 3.5t19.5 -3.5q11 -1 20.5 -2t17.5 -3q4 32 8.5 75.5t8.5 89.5t6.5 90.5t1.5 77.5q-1 21 11 32t28 11q12 1 24 -6.5t17 -23.5 q2 -9 2.5 -21.5t-7.5 -21.5q1 -21 -1.5 -58t-6 -79.5t-8 -87t-7.5 -80.5q28 0 62 0.5t69.5 1t72 1t70.5 0.5q2 42 3.5 94t3 101.5t2 91t-0.5 62.5q-2 4 -5 9t-5 9q-3 9 -4 21.5t1 23.5q3 11 12 18.5t20.5 9.5t23 -1.5t18.5 -13.5q8 -14 11 -30.5t3 -32.5q1 -23 0.5 -69.5 t-1.5 -99.5t-3 -105.5t-3 -87.5h64q18 0 27 -11t9 -25z" />
<glyph unicode="I" horiz-adv-x="456" d="M518 524q0 -14 -9 -24.5t-27 -12.5q-20 -2 -45 -2h-49q-24 0 -47.5 1t-41.5 3q2 -49 0 -104.5t-5.5 -113t-7.5 -114.5t-7 -109q35 1 73 1h65q18 0 27 -10.5t9 -23.5q1 -14 -9 -26t-29 -12q-26 0 -65 -0.5t-83 -2.5q-5 -8 -13 -12t-17 -4q-8 0 -15.5 4t-11.5 12 q-33 -1 -61.5 -2t-54.5 1q-19 0 -29.5 11.5t-10.5 25.5q0 13 10.5 24.5t29.5 11.5h54q25 0 57 2q3 55 6.5 112.5t6.5 114.5t4.5 111.5t0.5 102.5q-23 1 -49 1t-49 -1q-10 -8 -23.5 -9t-25.5 1q-17 3 -27 14t-10 25q-1 12 8 23t29 15q13 3 32 4t40 1h42h40q4 8 12 12t17 4 t17 -4.5t11 -13.5q42 -1 94.5 -1.5t98.5 0.5q18 0 28 -11t10 -25z" />
<glyph unicode="J" horiz-adv-x="360" d="M295 250q4 -59 0 -110t-18 -94.5t-39.5 -80.5t-64.5 -69q-35 -28 -70.5 -44.5t-68 -21.5t-60.5 1t-47 23q-14 12 -15.5 28t6.5 29q6 11 17 17t25 4t25.5 -9t15.5 -18q7 -1 19 -1t27.5 4.5t34.5 14.5t42 29q30 25 49.5 53.5t31 63.5t15 77.5t0.5 96.5q-6 123 -14 223 t-6 167q-7 5 -13.5 10.5t-5.5 14.5q0 12 8 30t16 29q10 11 24 14.5t27 -1.5q12 -4 18.5 -12.5t4.5 -20.5q-2 -8 -4.5 -19.5t-2.5 -20.5q1 -36 3.5 -83t5.5 -99.5t7 -110t7 -114.5z" />
<glyph unicode="K" horiz-adv-x="562" d="M594 -17q11 -14 8 -27t-10 -21q-8 -10 -23.5 -14t-31.5 13q-14 16 -53.5 37t-89 44.5t-102 49.5t-91.5 52q0 -33 -1 -51t-1 -40q-3 5 -1 3.5t5 -6t6.5 -10.5t4.5 -9q4 -18 -9 -35q-8 -10 -19 -13.5t-27 5.5q-10 5 -21.5 18t-11.5 35v169q-15 25 -15 56t20 56q1 30 3.5 64 t4 67t2.5 64t1 56q0 21 13.5 30t29.5 9q17 0 26 -10.5t11 -27.5q2 -16 -7 -41q0 -18 -1.5 -39t-3 -43t-2.5 -44t-1 -41q30 15 74 32.5t85.5 35t72 32.5t34.5 24q5 11 17 15.5t25 4.5q20 0 26 -14t4 -29q-3 -19 -17 -30t-21 -16q-30 -18 -74.5 -36.5t-89.5 -36.5t-83 -35 t-55 -31l-2 -44q23 -22 57.5 -43t73 -41t78.5 -38.5t75.5 -36.5t63.5 -35t43 -34z" />
<glyph unicode="L" horiz-adv-x="592" d="M609 90q8 -12 6.5 -28t-18.5 -27q-35 -21 -81 -37.5t-96.5 -27t-103 -15.5t-100.5 -5q-35 1 -59.5 7.5t-38.5 21.5q-22 21 -22.5 60.5t18.5 102.5q42 142 62.5 260.5t31.5 205.5q2 18 15 27t27 8t25 -11t9 -28q-9 -106 -32.5 -228.5t-61.5 -253.5q-10 -33 -11 -52.5 t8 -29.5q7 -8 18.5 -11t29.5 -3q46 1 92.5 7t89 16t78.5 23t62 28q17 9 30.5 5.5t21.5 -15.5z" />
<glyph unicode="M" horiz-adv-x="827" d="M816 -25q1 -14 -10 -27t-32 -15q-19 -2 -37.5 11t-26.5 33q-16 38 -30 82.5t-26.5 91.5t-22.5 93t-19 87q-9 -15 -22 -32t-26.5 -33.5t-27 -31t-25.5 -24.5q-23 -20 -49.5 -30t-53.5 -10q-59 0 -105 43q-29 27 -52.5 61.5t-38.5 74.5q-5 -62 -11.5 -116t-12 -101.5 t-8.5 -89t0 -78.5q2 -20 -10 -32t-27 -13q-13 -1 -24.5 9.5t-13.5 31.5q-5 56 0.5 113t14 123t17 144.5t9.5 177.5q-2 10 -5 22t-3 23q0 13 8.5 20.5t19.5 12.5q12 5 24 3t17 -11q3 -5 5.5 -13t4.5 -16q10 -4 10.5 -14t-3.5 -20q20 -91 52.5 -152.5t80.5 -104.5 q28 -25 54 -23q12 0 26 6t25 14q12 10 28 28t33 39.5t32.5 43t25.5 39.5q3 5 4 10.5t2 9.5q3 12 14 17.5t25 5.5q15 0 27 -4.5t14 -18.5q10 -47 22 -102.5t26 -111.5t29 -108.5t31 -93.5q3 -8 9.5 -12t13.5 -6q16 -6 18 -26z" />
<glyph unicode="N" d="M630 459q9 -33 9.5 -81.5t-4 -100t-13.5 -101t-21 -84.5q-16 -49 -49 -79.5t-75 -31.5q-26 1 -54 14.5t-57 45.5q-45 47 -88.5 111.5t-81.5 139.5q-4 -39 -7.5 -80t-6.5 -78.5t-4 -70.5t1 -56q2 -11 4 -19t10 -11q14 -5 18.5 -16.5t-0.5 -22.5t-14.5 -18.5t-24.5 -5.5 q-31 3 -46.5 23t-17.5 48q-4 37 -2.5 92.5t6 116t11 118.5t12.5 100q-5 11 -11.5 24.5t-9.5 27.5q-2 14 4 24.5t16 15.5q11 5 22.5 4t19.5 -11q5 -7 9 -14.5t8 -14.5q16 -2 22 -16t0 -31q16 -35 38 -78.5t48.5 -88.5t57 -87t62.5 -73q17 -17 31.5 -23.5t25.5 -5.5 q21 1 33 19.5t19 35.5q7 18 15 55t14 79.5t8 85t-2 72.5q-16 11 -14 31q1 16 10 26t21 15q14 5 28.5 -1t19.5 -24z" />
<glyph unicode="O" horiz-adv-x="809" d="M717 193q0 35 -51 81q-28 24 -63.5 45.5t-75.5 41.5q-48 23 -93 26.5t-82 -2.5q-14 -3 -28.5 0.5t-18.5 14.5q-27 -20 -53.5 -55.5t-47.5 -75.5t-33.5 -77.5t-12.5 -61.5q2 -29 10 -54t25 -40q29 -27 89.5 -26.5t166.5 35.5q42 14 91 30.5t91 33.5q46 20 66 40.5t20 43.5 zM795 195q-1 -49 -33.5 -88t-100.5 -65q-44 -17 -93 -33t-93 -33q-111 -41 -200.5 -37.5t-139.5 50.5q-52 49 -52 141q0 39 15.5 88t42 96.5t62 89t74.5 66.5q3 21 16.5 32.5t35.5 4.5q14 -5 26 -18.5t6 -27.5q6 -4 16 -2q38 5 82.5 1t99.5 -31q41 -20 82 -45t76 -52 q38 -29 58 -64t20 -73z" />
<glyph unicode="P" horiz-adv-x="590" d="M254 435q-9 -39 -18 -99t-13.5 -128.5t-2.5 -140.5t15 -136q4 -15 -4.5 -25t-22.5 -13q-15 -4 -29 2.5t-19 27.5q-14 68 -16 144t3 147.5t14.5 132.5t17.5 100q4 20 18 25t29 0q12 -3 21.5 -13t6.5 -24zM633 394q1 -31 -22.5 -60.5t-71.5 -52.5q-21 -9 -49.5 -23t-60 -29 t-63.5 -30t-60 -27q-17 -8 -30.5 -1t-19.5 20q-5 13 -2 26.5t20 21.5q31 14 62.5 29t61.5 29t56 26.5t46 22.5q44 20 42 45q0 15 -17 29t-54 23q-33 9 -74 17t-84.5 16.5t-86.5 16.5t-80 15.5t-65 14.5t-41 14q-17 9 -21 21.5t0 25.5t16 21.5t29 8.5q11 0 22 -5t18 -13 q39 -11 88 -21t101 -19.5t103.5 -19.5t94.5 -21q72 -20 106.5 -52t35.5 -69z" />
<glyph unicode="Q" horiz-adv-x="756" d="M632 285q-3 16 -9.5 37t-14 42t-17 40.5t-18.5 33.5q-17 26 -35.5 41.5t-41.5 16.5q-33 2 -80 -32q-30 -21 -62.5 -54.5t-64 -73.5t-60 -84.5t-50.5 -87.5q-32 -63 -34 -101.5t18 -57.5q18 -16 49 -17.5t68 7.5q18 4 39 10.5t43 14t43 15.5t38 16q-2 12 -4.5 24t-6.5 23 q-12 4 -16 24t6 39q8 16 21.5 25t26.5 9q9 0 16.5 -6t10.5 -20q4 -16 8 -41.5t9 -44.5q21 11 41 23t31 21q22 18 33.5 36t16 37t3 40t-6.5 45zM707 306q7 -32 9 -63.5t-5 -62t-25 -59t-50 -53.5q-10 -8 -23.5 -16.5t-27.5 -16.5t-28 -15.5t-25 -13.5q10 -42 22.5 -81.5 t27.5 -65.5q9 -16 21 -23t23 -7q17 -2 25.5 -13t7.5 -24q-1 -16 -11.5 -27.5t-29.5 -10.5q-33 1 -59 17.5t-41 45.5q-20 38 -33 79.5t-24 81.5q-21 -9 -45.5 -19t-48 -18.5t-44 -15t-33.5 -9.5q-68 -15 -117 -6.5t-78 37.5q-34 34 -34 94q0 61 42 146q23 46 54 94.5t67 94 t74 84t76 65.5q71 50 130 48q44 -1 79 -26t58 -68q21 -37 39 -85t27 -88z" />
<glyph unicode="R" horiz-adv-x="609" d="M496 374q0 20 -38 44q-32 21 -90 43t-124 39q-8 -14 -12.5 -38.5t-7 -57.5t-3.5 -73t-2 -83l60 20t65.5 22t62 22.5t50.5 22.5q39 19 39 39zM634 -72q-5 -14 -17 -22.5t-30 -3.5q-36 10 -83.5 27.5t-97.5 39t-99 45.5t-89 48q0 -16 -0.5 -35.5t-1.5 -38.5t-1.5 -36 t-0.5 -29q-1 -20 -12 -28.5t-24 -8.5q-14 1 -26.5 11t-11.5 29q1 40 2.5 91t1.5 94q-27 22 -29.5 54t31.5 58v74t2 79.5t7 76t16 65.5q-17 5 -37.5 9t-33.5 6q-7 -2 -17.5 0t-22 6.5t-21.5 11t-16 12.5q-11 11 -11.5 23.5t7.5 22.5q13 20 42 17q10 0 20.5 -4.5t15.5 -10.5 q55 -12 110 -25.5t106.5 -29t98.5 -34.5t87 -42q88 -54 88 -108q0 -56 -93 -99q-27 -13 -62 -26t-71.5 -26t-72 -25.5t-65.5 -24.5q0 -7 -0.5 -12t-0.5 -11q34 -23 82.5 -48.5t101 -49t105 -43t95.5 -30.5q20 -5 26.5 -20t1.5 -29z" />
<glyph unicode="S" horiz-adv-x="459" d="M488 749q24 -22 -2 -56q-16 -19 -50 -48.5t-75.5 -64t-83 -71t-72.5 -70.5q-42 -45 -42 -82q0 -33 38 -69q13 -13 33.5 -31t42.5 -37t42.5 -37.5t34.5 -31.5q66 -68 66 -133q1 -27 -9 -52t-28 -48q-18 -22 -38.5 -40t-40.5 -33t-39 -26.5t-34 -19.5q-17 -8 -31.5 -3.5 t-22.5 19.5q-8 12 -5 26.5t20 24.5q13 7 30.5 17t35 22t34 26.5t29.5 31.5q22 28 22 56q-1 36 -44 80q-13 13 -33.5 31.5t-42 37t-42 36t-33.5 29.5q-66 58 -66 121q-1 60 66 132q31 34 68 68t72.5 63.5t65.5 54t48 41.5q4 16 13 28t23 17q15 5 28 2t22 -11z" />
<glyph unicode="T" horiz-adv-x="539" d="M645 489q-2 -11 -9.5 -21.5t-18.5 -15.5q-12 -6 -28 -4t-27 12q-32 1 -93 1q-60 0 -138 -2q-1 -28 -2.5 -67t-1.5 -83v-88q0 -44 1 -82.5t3 -68.5t5 -44q21 -16 19 -38q-2 -21 -16.5 -29.5t-30.5 -5.5q-15 3 -30.5 16t-18.5 42q-6 41 -7.5 97t-1 116.5t2 121.5t2.5 113 q-37 -1 -80 -1.5t-84 -0.5t-77.5 0.5t-60.5 1.5q-19 0 -30 13.5t-10 27.5t10 24t27 9q42 -2 97 -2.5t116 -0.5t124.5 0.5t121.5 1t107 0.5q50 0 84 -1q26 0 36.5 -13t8.5 -29z" />
<glyph unicode="U" horiz-adv-x="691" d="M633 614q4 -18 9 -53.5t7 -83.5t-0.5 -104t-13 -114t-31 -114t-54.5 -104q-31 -45 -72.5 -81.5t-87.5 -56.5q-56 -23 -108 -18t-92 42q-26 24 -44.5 61t-29.5 89q-13 65 -10 132t12 126t18.5 105t9.5 69q0 19 12.5 29t24.5 9q15 0 27 -10.5t12 -29.5q0 -30 -9.5 -79 t-18.5 -106t-12 -117.5t10 -114.5q18 -75 50 -104q23 -23 53.5 -25t64.5 12t67 42.5t62 67.5q26 36 43 82.5t26.5 96t12.5 99.5t1.5 94t-6 79t-9.5 55t4 34t23 19t29 -2t20 -26z" />
<glyph unicode="V" horiz-adv-x="664" d="M714 453q0 -17 -11 -31t-29 -23q-35 -47 -74.5 -101t-82 -110t-85.5 -112t-84 -105q-7 -11 -18.5 -16.5t-24.5 -5.5q-12 0 -23.5 6t-18.5 18q-28 44 -57.5 99.5t-57.5 113.5t-53.5 113t-44.5 97q-7 17 -1 34t30 20h8q8 0 18.5 -5t15.5 -18q48 -106 90 -194t90 -169 q11 -19 25 -1q24 30 53 68t60 79t62 82.5t58 78.5t48.5 66t33.5 45q29 38 57 16q12 -10 14 -24t2 -21z" />
<glyph unicode="W" horiz-adv-x="956" d="M892 330q11 -55 11 -105t-19 -97q-20 -50 -54 -85.5t-81 -58.5q-27 -13 -58 -20t-62 -5.5t-61 13.5t-57 36q-20 19 -32.5 45t-20 56.5t-10.5 63.5t-4 67q-14 -29 -30 -62t-33.5 -66.5t-35 -66t-34.5 -60.5q-23 -39 -48.5 -56t-48.5 -12q-23 3 -40 28.5t-23 72.5 q-5 43 -11.5 97t-11.5 113t-8.5 119.5t-3.5 117.5q0 20 11.5 29.5t25.5 9.5t25.5 -9.5t11.5 -26.5q1 -46 4 -98t7.5 -106t10 -107t12.5 -101q2 -15 6 -24t10 -9q10 0 27 26q13 22 29 52.5t33 64.5t33.5 69.5t31.5 67t27 56.5t20 40q6 14 19 18.5t26 0.5q11 -2 19 -11.5 t6 -25.5q-2 -38 -1.5 -84.5t5.5 -91t16.5 -83t33.5 -59.5q29 -29 69 -31t76 15q35 18 62.5 45t41.5 63q12 29 12 70t-7 87q-8 46 -21 88t-26.5 75t-25.5 54t-17 26q-15 14 -14 29.5t12 25.5q10 10 25 12t29 -12q13 -13 29 -40t31.5 -64t28.5 -82t22 -94z" />
<glyph unicode="X" horiz-adv-x="529" d="M550 578q-2 -20 -13 -29t-14 -14q-45 -71 -97 -152t-99 -155q19 -28 42.5 -59.5t49.5 -63.5t53.5 -62.5t54.5 -57.5q14 -12 11.5 -27t-12.5 -24q-10 -10 -24 -11t-28 10q-27 26 -53 55.5t-50 59t-46 58t-41 54.5q-49 -80 -94 -152t-74 -123q-14 -23 -24 -49 q-5 -13 -13.5 -18t-17.5 -5q-17 1 -28.5 14.5t-8.5 36.5q3 14 11 29.5t16 30.5q12 20 32 52.5t44.5 72t53 85.5t58.5 93q-9 15 -23.5 37t-30 47t-32 50t-29.5 45.5t-22 34t-10 15.5q-8 14 -5.5 27.5t12.5 21.5q14 9 29 7.5t27 -18.5q4 -6 20 -30.5t36 -55t40.5 -61.5 t32.5 -50q21 34 43.5 70.5t46 73t45.5 71.5t42 65q6 10 12.5 14.5t9.5 12.5q8 17 21.5 19.5t24.5 -4.5q10 -7 16.5 -17.5t4.5 -23.5z" />
<glyph unicode="Y" horiz-adv-x="533" d="M648 562q-23 -26 -47 -57t-45 -63q-33 -51 -61 -95.5t-53.5 -87t-50 -84t-49.5 -86.5q6 -19 -3 -32t-23 -15q-8 -14 -21.5 -37.5t-28.5 -48.5t-29 -47.5t-23 -34.5q-11 -14 -26 -15t-26 7q-12 8 -16 20.5t7 28.5q25 38 51.5 83.5t49.5 86.5q-29 50 -60.5 111.5t-59.5 121 t-49.5 110.5t-30.5 80q-5 13 3 23.5t21 15.5t26.5 1t19.5 -21q11 -30 30.5 -75t43.5 -95t49.5 -101.5t49.5 -94.5q15 25 35.5 61t46 78.5t54.5 89t60 92.5q48 71 96 128q12 13 28.5 12t27.5 -9t14 -22t-11 -29z" />
<glyph unicode="Z" horiz-adv-x="571" d="M567 489q9 -23 -1.5 -51t-37.5 -54q-35 -33 -82 -74.5t-96 -85.5t-96 -86.5t-81 -77.5q-12 -12 -19.5 -22t-4.5 -18q5 -11 34 -14q40 -2 82.5 1.5t81.5 11t72 18t55 21.5q18 10 31.5 4t20.5 -18q8 -17 3.5 -31t-22.5 -22q-33 -15 -76 -27.5t-91 -21t-97.5 -11.5t-93.5 2 q-83 9 -97 53q-7 21 4.5 48t40.5 56q41 41 87 84t92 85t91 82t85 75q8 8 12 16t0 14q-5 9 -25 9q-82 -4 -151.5 -13t-143.5 -26q-15 -5 -27 -12t-23.5 -2.5t-17.5 15.5q-7 11 -6 24.5t15 27.5q14 13 42 21q79 19 165 29t185 12q38 2 60 -10t30 -32z" />
<glyph unicode="[" horiz-adv-x="237" d="M262 -121q0 -14 -10 -25t-28 -11q-23 0 -37.5 1t-27 1.5t-25.5 1t-34 0.5q-24 -2 -38 4.5t-21 17.5t-7.5 24.5t2.5 25.5q1 32 2 93t1.5 137t1 160t0.5 161t-1 141.5t-3 100.5q-4 54 11 70t51 4q44 -2 83 -2.5t65 -0.5q19 0 29 -12t9 -26q0 -13 -9 -23.5t-27 -10.5h-65 t-73 1q2 -35 3 -98t1.5 -140t0.5 -161t-0.5 -160.5t-1.5 -138.5t-2 -95q18 1 30.5 1.5t24.5 0t25.5 -2t33.5 -2.5q18 -2 27 -12.5t9 -24.5z" />
<glyph unicode="\" horiz-adv-x="493" d="M25 616q-3 23 1 38t15 17q13 2 22.5 -2t19.5 -21q7 -11 9.5 -25.5t2.5 -31.5q33 -53 81.5 -117t102 -131t106.5 -133t96 -123t70 -101t29 -67q3 -29 -22 -34q-13 -4 -21 -1.5t-13 19.5q-5 19 -28.5 55.5t-59 83.5t-79 102t-88 111.5t-87.5 112t-77 103.5t-55.5 86 t-24.5 59z" />
<glyph unicode="]" horiz-adv-x="222" d="M-24 -121q0 14 9 24.5t27 12.5q20 1 33.5 2.5t25.5 2t24.5 0t30.5 -1.5q-1 33 -2 95t-1.5 138.5t-0.5 160.5t0.5 161t1.5 140t3 98q-35 -1 -73 -1h-65q-18 0 -27 10.5t-9 23.5q-1 14 9 26t29 12q26 0 65 0.5t83 2.5q36 12 51 -4t11 -70q-2 -36 -3 -100.5t-1 -141.5 t0.5 -161t1 -160t1.5 -137t2 -93q3 -12 2.5 -25.5t-7.5 -24.5t-21 -17.5t-38 -4.5q-21 0 -34 -0.5t-25.5 -1t-27 -1.5t-37.5 -1q-18 0 -28 11t-10 25z" />
<glyph unicode="^" horiz-adv-x="346" d="M333 421q9 -11 8 -21.5t-9 -17.5t-17.5 -8t-19.5 7q-12 11 -25.5 24.5t-23.5 22.5q-3 4 -6 3.5t-6 -2.5q-17 -11 -39 -24.5t-42 -26.5q-11 -7 -22.5 -3.5t-16.5 13.5q-6 8 -5 18.5t13 18.5q27 16 54.5 33.5t48.5 29.5q24 16 44 -1q15 -14 33 -33t31 -33z" />
<glyph unicode="_" horiz-adv-x="502" d="M545 -141q1 -10 -6 -22t-22 -14q-14 -2 -53.5 -3t-91.5 -1.5t-109 -0.5h-107t-85.5 0.5t-43.5 1.5q-30 -1 -43 9t-14.5 23.5t5 25.5t16.5 15q11 3 49.5 4.5t90.5 1.5h111q60 0 113 -0.5t92.5 0t52.5 1.5q7 1 15 -3t14.5 -10.5t11 -14t4.5 -13.5z" />
<glyph unicode="`" horiz-adv-x="276" d="M260 366q-6 -7 -16 -10t-21 5q-29 22 -60.5 46t-59.5 47q-12 9 -11 20t8 19q6 8 17 11t21 -5q31 -25 60.5 -48t57.5 -46q12 -8 11 -19.5t-7 -19.5z" />
<glyph unicode="a" horiz-adv-x="614" d="M667 84q10 -13 7.5 -30t-18.5 -27q-34 -19 -77.5 -34.5t-80.5 -19.5q-44 -4 -67.5 5t-40.5 35q-7 9 -12.5 27t-5.5 32q-1 8 -7.5 9.5t-14.5 -4.5q-11 -7 -26.5 -19.5t-33 -27.5t-35.5 -31t-34 -29q-38 -29 -71 -30.5t-54 17.5q-26 23 -26 69q1 22 7 43.5t16 41.5 q15 30 37 59t46.5 54.5t49.5 46t46 34.5q18 12 41 25.5t49.5 20t55.5 2.5t58 -28q13 -11 14 -24t-5 -24q-8 -14 -25.5 -18.5t-33.5 5.5q-23 18 -50.5 13.5t-64.5 -29.5q-18 -12 -40.5 -31.5t-43.5 -42.5t-39.5 -47.5t-29.5 -47.5q-6 -12 -8 -29t6 -23q11 -9 32 9 q15 13 37.5 32t46.5 38.5t47.5 37.5t41.5 29q15 9 30.5 12.5t27.5 0.5t19 -13t7 -27q-1 -20 0.5 -37.5t6.5 -30.5q6 -17 16.5 -23t27.5 -5q13 2 30 6.5t34 10.5t33.5 12.5t28.5 12.5q15 7 26 4t19 -12z" />
<glyph unicode="b" horiz-adv-x="541" d="M487 290q21 -24 19 -64.5t-27 -85.5q-12 -25 -30.5 -52t-40.5 -51q-35 -38 -77.5 -67.5t-86.5 -57.5q-15 -10 -29 -6t-22 17q-7 12 -4 27.5t15 23.5q47 30 85 56.5t66 59.5q18 20 33.5 43t23.5 42q9 19 12 32.5t-5 24.5q-5 7 -15 9.5t-29 0.5q-26 -3 -62 -15t-70 -32 q-17 -10 -33 -24t-24 -31q-2 -5 -3.5 -9.5l-3.5 -10.5q-2 -14 -1.5 -27.5t1.5 -25.5q-1 -18 -11.5 -27.5t-23.5 -10.5t-24.5 8t-15.5 28q-6 29 -7.5 68.5t0 84t5.5 92t9.5 91.5t11.5 82.5t12 66.5q3 16 6.5 28.5t11.5 23.5q14 20 39 18q15 0 25 -8.5t8 -24.5 q-1 -12 -7 -23.5t-8 -18.5q-5 -29 -10.5 -65.5t-11 -78t-9.5 -85.5t-6 -87q10 12 26 23.5t32 19.5q28 14 67 27.5t78 18.5q40 6 67.5 -2.5t43.5 -25.5z" />
<glyph unicode="c" horiz-adv-x="579" d="M596 107q8 -13 6.5 -28.5t-20.5 -26.5q-18 -10 -51.5 -25t-77.5 -28.5t-97.5 -23.5t-111.5 -11q-54 -1 -92.5 12t-58 37.5t-19 58.5t24.5 76q15 26 36 50.5t47.5 46t56.5 39t63 29.5q12 4 29 5t29 -1q23 -3 33.5 -14.5t11.5 -25.5q0 -14 -9.5 -26.5t-26.5 -15.5 q-12 -3 -26 -1.5t-28 6.5q-18 -5 -39.5 -17t-41.5 -29.5t-37.5 -37.5t-27.5 -40q-8 -15 -8.5 -29.5t8.5 -25.5t26.5 -17.5t45.5 -6.5q50 0 98.5 9t90 22t72 27t44.5 22q15 8 28.5 4.5t21.5 -14.5z" />
<glyph unicode="d" horiz-adv-x="619" d="M561 151q2 -28 -11.5 -42.5t-30.5 -14.5q-12 0 -23.5 6t-18.5 20q-11 17 -25.5 35.5t-32 33.5t-37.5 24t-40 9q-18 0 -40 -7.5t-44 -19.5t-43 -28t-37 -32q-11 -11 -16 -23t-5 -21q1 -16 16 -29t44 -21q16 -5 42 -8.5t58 -3t67 5t70 16.5q16 5 28.5 -2t18.5 -20 q5 -14 0 -28t-28 -22q-41 -14 -81 -19t-77 -5q-36 0 -66 3.5t-51 8.5q-61 15 -92.5 47t-32.5 73q-2 44 41 90q19 21 46.5 42t58.5 38.5t63.5 29t61.5 11.5q24 0 43 -5.5t35.5 -14.5t30 -20t25.5 -21q-4 51 -9 106.5t-10.5 109.5t-11.5 103.5t-12 88.5q-4 20 6.5 32.5 t24.5 14.5q14 3 27.5 -5.5t16.5 -30.5q6 -44 14 -108t15.5 -134t13 -139.5t8.5 -123.5z" />
<glyph unicode="e" horiz-adv-x="476" d="M308 275q7 31 -4 41q-8 5 -20 3t-21 -7q-13 -8 -31 -26q-21 -21 -40.5 -51.5t-29.5 -62.5q22 4 46 14t45 24t35.5 30.5t19.5 34.5zM515 79q7 -13 2.5 -28t-23.5 -21q-23 -8 -59 -22.5t-79 -27.5t-91 -19.5t-94 1.5q-47 8 -71 33q-46 44 -31 125q6 38 19.5 71t29.5 60 t32.5 48t30.5 35t28 25.5t25 16.5q12 6 26.5 10.5t30 6t30.5 -0.5t28 -10q15 -9 23 -23t11 -30.5t1.5 -35t-5.5 -35.5q-9 -33 -33.5 -61.5t-57.5 -50.5t-71 -36.5t-73 -17.5q-3 -25 8 -39.5t33 -18.5q34 -8 74.5 -1.5t80 18.5t75 26t58.5 21q16 5 26.5 -1.5t15.5 -17.5z" />
<glyph unicode="f" horiz-adv-x="401" d="M496 589q-4 -14 -14.5 -22t-22.5 -8q-13 -2 -24 5t-13 21q-2 5 -2 9t-2 11q-3 11 -11.5 17.5t-17.5 5.5q-17 -1 -38.5 -14t-40.5 -31q-12 -11 -25 -30t-22 -37q-19 -39 -31.5 -85t-20.5 -97q37 4 82.5 9t90.5 10q20 3 30.5 -8t10.5 -25q0 -13 -8 -25t-26 -14 q-46 -8 -96.5 -13.5t-93.5 -10.5q-6 -63 -6.5 -128.5t3 -124t10 -104.5t15.5 -70q4 -11 11.5 -18t13.5 -17q15 -27 -5 -45q-12 -11 -25.5 -11.5t-25.5 5.5q-31 17 -44 57q-13 45 -20 103t-9 119t-1 120.5t5 107.5q-15 -2 -28.5 -3.5t-28.5 -1.5q-18 -1 -27.5 9.5t-9.5 24.5 q-1 13 8 25t28 14q14 2 31.5 3t33.5 3q8 60 24 117.5t39 105.5q27 52 60 87q10 10 25.5 22.5t35 23t41 18t44.5 7.5q22 0 39.5 -7.5t30 -19.5t19.5 -27t8 -30q3 -17 0 -33z" />
<glyph unicode="g" horiz-adv-x="506" d="M444 331q18 -11 20.5 -26.5t-4.5 -28t-20.5 -18.5t-27.5 3q-6 4 -13 5t-14 1q-18 0 -42 -8t-48.5 -20.5t-48.5 -30t-43 -36.5q-15 -17 -28.5 -40t-15.5 -40q-2 -15 6.5 -21t30.5 7q14 8 31 18t35 19.5t35.5 17t32.5 11.5q22 5 40.5 0t28.5 -24q7 -13 13 -43.5t9 -69.5 t2 -82.5t-10 -81.5q-14 -62 -50.5 -118.5t-100.5 -95.5q-15 -9 -31 -4t-24 16q-8 12 -6 26t19 26q53 33 79.5 75.5t37.5 91.5q13 56 9 99t-10 82q-2 13 -9.5 16t-18.5 -2q-19 -8 -47 -23.5t-54 -29.5q-29 -17 -54 -20.5t-44 4.5t-29.5 26.5t-10.5 45.5q0 46 24.5 88.5 t56.5 77.5q21 22 48.5 43.5t58.5 38t64 26.5t64 10q16 0 31 -1.5t28 -9.5z" />
<glyph unicode="h" horiz-adv-x="646" d="M768 96q7 -13 3 -28t-21 -23q-45 -20 -82.5 -33t-79.5 -14q-38 -1 -72 10t-60 44q-18 23 -27.5 52t-14.5 48q-6 25 -20 27.5t-40 -13.5q-14 -8 -35 -23.5t-43.5 -34.5t-44 -40t-37.5 -40q-11 -14 -25 -19t-26.5 -2.5t-22 13t-10.5 28.5q-6 81 -6.5 157.5t8 144 t26.5 123.5t48 98q10 15 25 17t28 -4q15 -8 20 -22t-9 -31q-27 -32 -41.5 -82t-21 -107.5t-7 -115.5t0.5 -104q14 15 33.5 32t39 32.5t38 28.5t30.5 21q29 17 58.5 24t53.5 -2q22 -8 34.5 -25t18.5 -47q4 -21 12.5 -47t19.5 -39q11 -14 24 -21t42 -7q27 0 58.5 10t76.5 30 q17 8 29 2.5t19 -18.5z" />
<glyph unicode="i" horiz-adv-x="402" d="M488 66q1 -12 -7.5 -24t-28.5 -14q-14 -2 -38.5 -9.5t-52 -17.5t-56 -19.5t-49.5 -14.5q-63 -15 -98.5 0.5t-51.5 73.5q-5 19 -5.5 44.5t1.5 44.5q2 26 7.5 51t12.5 45q-6 2 -6 8t2 12q4 9 12 22.5t16 21.5q10 8 22.5 9t23.5 -3q14 -5 21.5 -15.5t0.5 -23.5 q-11 -22 -22.5 -58t-13.5 -69q-1 -20 0 -36t4 -27q5 -20 17.5 -26.5t39.5 -1.5q17 3 44 13t56.5 21.5t58 20.5t48.5 9q20 1 30.5 -11t11.5 -26zM294 514q12 -8 18 -20.5t6 -26.5q0 -13 -6 -26.5t-19 -22.5q-17 -12 -39 -11t-40 18q-17 18 -16.5 44.5t25.5 44.5q15 11 35 11 t36 -11z" />
<glyph unicode="j" horiz-adv-x="259" d="M203 100q0 -52 -6 -106t-17.5 -105.5t-28 -98t-36.5 -83.5q-11 -20 -30.5 -37t-45.5 -16q-24 0 -35.5 13t-10.5 29q2 19 14 29q8 5 15 5.5t16 2.5q5 4 8.5 10t6.5 12q16 34 29.5 75.5t23 86t14.5 91t5 92.5q0 62 -11 120q-11 3 -15 19q-2 7 -2 17q0 11 2 19q3 11 12 18.5 t20 10.5q14 4 27 0t18 -18q14 -39 20.5 -86.5t6.5 -99.5zM159 547q11 -8 17 -20.5t5.5 -26t-6.5 -27t-19 -22.5q-14 -11 -37 -11t-41 20q-17 19 -15.5 45.5t23.5 41.5q17 13 36 13q20 0 37 -13z" />
<glyph unicode="k" horiz-adv-x="522" d="M555 -35q-5 -12 -16.5 -20.5t-25.5 -5.5q-45 10 -96 33t-99 50.5t-88 56.5t-61 51q-1 -12 -1.5 -27.5l-1 -31t-1 -29.5t-0.5 -23q-2 -18 -12 -27t-24 -9q-13 0 -24.5 9t-11.5 27q-2 44 -1 101t10 118q7 46 17.5 92t26.5 89t36.5 81.5t47.5 68.5q11 11 26 11.5t26 -7.5 q10 -8 13.5 -21t-6.5 -30q-40 -57 -64 -115t-37 -125q13 9 39.5 19t59 18.5t68 14.5t67.5 7q35 2 62 -3q19 -2 26.5 -13.5t6.5 -24.5q-1 -16 -12.5 -27.5t-31.5 -6.5q-9 2 -22 1.5t-27 -0.5q-26 -2 -54 -7t-54.5 -12t-49.5 -15t-38 -16q-14 -6 -16.5 -16.5t9.5 -22.5 q20 -17 56.5 -42t80 -50t88.5 -46t83 -28q20 -5 25.5 -19t0.5 -28z" />
<glyph unicode="l" horiz-adv-x="427" d="M313 481q-3 55 -20 59q-16 5 -44 -38q-13 -20 -26 -49.5t-24.5 -65t-18.5 -74t-8 -74.5q-2 -51 14 -93q26 31 52 66.5t43 75.5q6 15 12.5 38.5t11 50.5t7 54t1.5 50zM557 82q5 -13 -0.5 -27.5t-25.5 -22.5q-26 -9 -66.5 -23t-85.5 -24t-91 -12t-83 13q-63 26 -86 91 t-22 162q0 42 8 87t21.5 86.5t31 78t35.5 62.5q32 45 63.5 67t59.5 17q30 -4 49.5 -38.5t23.5 -102.5q2 -27 0 -58.5t-7.5 -63.5t-14 -62.5t-19.5 -55.5q-12 -28 -27.5 -53.5t-32.5 -48.5t-34.5 -43t-33.5 -37q6 -5 18.5 -12t23.5 -9q25 -4 55 -0.5t62 11.5t65 18.5t63 21.5 q17 6 31 -1t19 -21z" />
<glyph unicode="m" horiz-adv-x="966" d="M1084 54q-5 -8 -14.5 -15.5t-20.5 -8.5q-4 0 -6 1t-10 2q-13 -2 -44.5 -9.5t-63.5 -18.5q-40 -14 -80.5 -12t-70.5 37q-23 26 -37 64.5t-25 81.5q-6 23 -21 23q-17 0 -53 -27q-8 -5 -22 -17.5t-31 -30t-34.5 -37t-32.5 -38.5q-7 -10 -18 -15t-22 -5t-22 5.5t-17 16.5 q-13 28 -23.5 63t-21.5 59q-7 13 -22 10q-18 -1 -37 -27q-16 -23 -36.5 -45.5t-40.5 -45.5q-16 -18 -33 -43.5t-29 -44.5q-10 -16 -26 -19.5t-29 2.5q-11 5 -18 16t-8 27q-2 32 -3 70.5t-0.5 76t1.5 70.5t2 54q2 20 13.5 29t25.5 9q15 1 27 -9t11 -29q-2 -41 -3.5 -88.5 t0.5 -90.5q6 8 14 19.5t19 22.5q15 16 30 34.5t29 35.5q17 21 43 41t52 25q23 4 43.5 -5.5t35.5 -42.5q8 -20 16 -42t13 -36q2 -9 8 -9.5t12 6.5q9 10 20.5 22t24 24t24.5 23t21 19q69 59 117 59q27 1 45 -18.5t26 -57.5q7 -38 20.5 -75.5t29.5 -57.5q14 -16 31 -15.5 t33 5.5q18 6 37.5 12t39 11t37 9t30.5 5q25 1 40 -12q20 -17 4 -43z" />
<glyph unicode="n" horiz-adv-x="682" d="M811 77q1 -11 -5 -21.5t-19 -15.5q-6 -2 -12.5 -3.5t-14.5 0.5q-20 -8 -48 -18.5t-59 -24.5q-54 -23 -102.5 -11.5t-73.5 64.5q-17 35 -22 68.5t-8 55.5q-3 14 -17 16q-9 2 -20.5 -2t-24.5 -12q-10 -7 -21.5 -17.5t-24.5 -22t-26.5 -23.5t-26.5 -21q-12 -9 -26.5 -23 t-28 -29t-24 -29.5t-15.5 -24.5q-11 -20 -26.5 -23t-29.5 3t-18.5 16t-4.5 22v55v55t-0.5 49t-0.5 39q-15 4 -15 18q2 9 7.5 22.5t12.5 21.5q5 7 14 9.5t20 1.5q12 -1 22 -7.5t12 -19.5q1 -14 2 -34t1 -42v-42t-1 -37q13 19 33 36.5t38 33.5q21 20 43.5 40t42.5 34 q22 17 49.5 27t51.5 9q29 1 50 -16t26 -52q5 -39 11 -69t15 -50q11 -24 33 -26.5t44 6.5q32 13 70 28.5t69 22.5q23 5 35 -6.5t13 -30.5z" />
<glyph unicode="o" horiz-adv-x="572" d="M412 92q19 23 11.5 48t-30.5 41q-15 0 -35.5 -0.5t-38.5 0.5q-28 0 -44.5 9.5t-11.5 24.5q-5 3 -10.5 1t-13.5 -5q-21 -14 -44 -45t-29 -70q-9 -48 6 -70q16 -24 53 -24q29 -1 52.5 3.5t41.5 12.5q26 11 50 31t43 43zM545 214q0 -8 -4 -16t-12 -12q-17 -5 -45 -5 q6 -8 11.5 -22t6 -32t-6 -39t-24.5 -42q-55 -65 -120 -94q-28 -13 -59 -18t-66 -6q-91 -2 -125 56q-27 47 -10 127q6 30 18.5 57.5t30.5 50.5t40 41t46 30q22 11 46 10.5t44 -19.5q9 3 20 3.5t19 -1.5q17 -2 36 -10.5t31 -19.5h83q18 0 29.5 -12t10.5 -27z" />
<glyph unicode="p" horiz-adv-x="519" d="M507 174q1 -30 -19 -58t-59 -49q-6 -3 -15.5 -7.5t-21 -9.5t-22.5 -10.5t-18 -9.5q-10 -6 -24 -13t-30 -14t-32 -11.5t-29 -4.5q-21 1 -33 11.5t-13 25.5q0 20 19 39q10 8 23.5 10.5t24.5 -2.5q4 0 12 3t17.5 7t19 9.5t17.5 10.5q7 4 17 8.5t19.5 8.5t17.5 7t12 6 q18 10 25.5 21t7.5 21q0 13 -11 25t-31 21q-12 6 -33 14.5t-46.5 17t-53 16t-52.5 10.5q-7 -65 -13 -137t-10 -144t-6 -140t-1 -125q15 -9 18 -30q1 -10 -3 -24t-14 -23q-10 -11 -22 -15t-22.5 -1.5t-18.5 11.5t-10 24q-2 8 -2.5 19.5t-0.5 22.5q-1 76 1.5 152.5t7 150 t10 141t10.5 126.5q-7 1 -14 1h-13q-7 1 -13 1q-5 0 -13 2q-14 5 -20.5 14t-6.5 19q0 16 11 29t34 12q105 -5 189.5 -28t147.5 -53q44 -20 64.5 -49t20.5 -59z" />
<glyph unicode="q" horiz-adv-x="551" d="M491 116q-17 -42 -32 -97t-25.5 -107.5t-14.5 -96t1 -62.5q9 -5 17.5 -14t8.5 -21q1 -17 -11 -32.5t-32 -14.5q-32 2 -45.5 25.5t-15.5 51.5q-3 28 0.5 69t11 83.5t17 82.5t18.5 67q5 12 -1 15.5t-14 -1.5q-11 -5 -26 -14l-32.5 -19.5t-36 -22.5t-36.5 -22 q-40 -23 -73 -22t-55 21q-31 29 -28 88q3 46 17 88.5t35 74.5q31 49 74.5 86.5t86.5 59.5q21 11 42.5 17.5t41.5 6.5q21 0 38 -8.5t28 -26.5q10 -17 6.5 -31t-12.5 -22q-23 -18 -49 0q-11 10 -23 8.5t-33 -10.5q-18 -8 -37.5 -21.5t-38 -29.5t-34 -34t-25.5 -35 q-17 -28 -25.5 -52.5t-11.5 -53.5q-2 -13 1.5 -21.5t8.5 -13.5q16 -13 46 6q25 16 54 34.5t57 35t53 29.5t44 19q24 6 45 -9q12 -8 17 -22.5t-2 -31.5z" />
<glyph unicode="r" horiz-adv-x="476" d="M495 205q-7 -11 -18.5 -15t-26.5 4q-11 5 -19.5 6.5t-16.5 -0.5q-16 -2 -37.5 -9t-45.5 -17t-47.5 -23t-44.5 -26q-17 -11 -29 -22t-17 -20q-8 -14 -11 -26.5t-5 -26.5q-2 -19 -12.5 -27.5t-24.5 -8.5t-25 10t-12 30q-1 19 -1 44v50q0 26 1.5 49.5t3.5 41.5q-7 2 -8.5 8 t2.5 12q6 9 10 18t8 19q5 14 17.5 17.5t26.5 0.5q11 -4 19.5 -13t5.5 -23q-2 -9 -4 -21t-3.5 -25t-2 -25.5t-0.5 -21.5q7 8 13.5 13t14.5 11q22 15 51 30t59 27.5t59.5 20.5t52.5 9q20 1 36 -5t25 -12q14 -11 14 -27q0 -15 -8 -27z" />
<glyph unicode="s" horiz-adv-x="401" d="M431 347q-6 -9 -16.5 -14t-24.5 0t-28 14q-14 0 -36 -5.5t-46 -14.5t-47.5 -20.5t-40.5 -23.5q-26 -17 -27 -32q0 -13 24 -26q30 -16 59 -29t63 -39q23 -19 33 -46t10 -53q0 -28 -9 -55.5t-24 -49.5q-26 -40 -62.5 -75t-87.5 -63q-23 -13 -48 -13q-24 0 -47 11 q-21 11 -25.5 28t1.5 31q7 15 22.5 20.5t34.5 -6.5q8 -6 18 -5.5t18 5.5q33 20 64.5 49.5t48.5 57.5q11 17 16 33t5 30q1 25 -17 43q-19 17 -51 32.5t-70 32.5q-34 14 -51 35t-17 45q0 23 18 48t54 48q19 13 45 27t55 25.5t60.5 19.5t61.5 9q20 1 36 -5.5t25 -17.5 q11 -12 11 -26t-8 -25z" />
<glyph unicode="t" horiz-adv-x="379" d="M404 263q0 -13 -9 -23.5t-28 -11.5q-22 0 -63.5 2t-81.5 2q0 -28 2 -58.5t5.5 -59t7.5 -54.5t9 -45q4 -17 -4.5 -28.5t-21.5 -14.5q-14 -4 -29 3.5t-20 28.5q-11 44 -17.5 104t-6.5 124h-73q-18 -1 -27.5 10t-9.5 25t9 25.5t28 13.5q13 0 32 0.5t41 0.5q0 31 2.5 71 t8 83.5t13 87t16.5 82.5q-11 5 -7 19q2 7 8 16.5t11 18.5q2 5 4 10.5t4 9.5q7 16 22 19.5t28 -4.5q11 -6 18 -17t6 -26q0 -11 -4 -18.5t-9 -15.5q-9 -33 -17 -76t-14.5 -88.5t-10 -90.5t-3.5 -81q11 0 30.5 -0.5t41 -1.5t43 -2.5t36.5 -3.5t22.5 -12.5t7.5 -23.5z" />
<glyph unicode="u" d="M730 77q6 -12 3.5 -26.5t-18.5 -24.5q-23 -14 -57 -26t-72 -19q-34 -5 -69 5t-53 38q-8 14 -12.5 29.5t-6.5 38.5q-20 -26 -49 -54.5t-55 -45.5q-41 -27 -80 -35.5t-73 -0.5q-29 7 -49.5 26t-31.5 49q-9 27 -10.5 61t1.5 68t9.5 63t12.5 46q6 16 18 23t25 7 q15 0 26.5 -11.5t4.5 -31.5q-7 -22 -12 -49t-8 -53.5t-2 -50.5t6 -40q7 -25 32 -33q17 -5 40.5 0t47.5 22q59 42 97 94t55 100q6 14 19 18.5t27 2.5q14 -4 23 -14.5t5 -25.5q-11 -44 -12 -80t8 -61q8 -20 23 -26t34 -4q29 3 56.5 13.5t47.5 21.5q17 10 30 5t19 -19z" />
<glyph unicode="v" horiz-adv-x="469" d="M473 226q0 -14 -9 -27.5t-28 -15.5q-11 -1 -25 -1q-13 0 -27 3q-8 -20 -17.5 -43.5t-20.5 -48t-22.5 -48t-22.5 -43.5q-38 -67 -81 -67q-42 0 -80 61q-9 15 -18 36t-16 41q-13 39 -19.5 82t-11.5 85q-5 4 -7 11t-2 14q0 8 1.5 15t2.5 12q4 20 16.5 30t26.5 9 q12 -1 22 -10t12 -29q1 -17 3.5 -40t6 -49t9 -53.5t13.5 -52.5q4 -11 9 -24t10 -21q7 -10 12 -15.5t10 -5.5q5 1 11 5.5t12 15.5q20 34 39.5 76.5t34.5 85.5q-7 5 -9.5 12.5t-2.5 15.5q0 29 32 42q19 8 34.5 0t21.5 -23q9 -3 21 -3h22q19 3 28 -7.5t9 -24.5z" />
<glyph unicode="w" horiz-adv-x="852" d="M801 77q-13 -26 -37 -47.5t-63 -41.5q-32 -16 -71.5 -28t-81.5 -12q-34 0 -64.5 11t-54.5 38q-11 12 -20 27.5t-14 27.5q-3 11 -12 11q-8 0 -16 -8q-14 -13 -32 -27t-45 -33q-42 -31 -86.5 -32.5t-76.5 19.5q-20 14 -32 36t-12 51q0 36 10 71.5t27.5 65t41.5 49t51 24.5 q6 1 14 1q9 0 14 -1q17 -2 26 -13t8 -25q-1 -12 -7.5 -21t-20.5 -9h-13q-6 0 -11 -2q-11 -4 -22 -16t-20 -30t-15 -40t-7 -46q0 -23 20 -35q12 -5 32 -2t39 16q13 8 28.5 20t31.5 25t31 26t27 24q20 19 42.5 17t28.5 -21q3 -10 7.5 -23t9.5 -26.5t11.5 -26t12.5 -19.5 q14 -15 31 -21.5t38 -7.5q27 0 57.5 9t60.5 23q50 25 64 54q8 16 7 32.5t-9 33.5q-12 22 -30.5 44.5t-35.5 42.5q-14 16 -13.5 30.5t10.5 24.5q11 12 29 13t34 -11q10 -6 16.5 -14.5t5.5 -22.5q14 -14 27 -34t22 -37q18 -32 21 -65.5t-14 -68.5z" />
<glyph unicode="x" horiz-adv-x="529" d="M528 27q9 -13 7 -29t-19 -26q-34 -19 -79 -16t-89 39q-49 42 -95 104q-24 -17 -50.5 -37.5t-53.5 -42t-53.5 -43.5t-50.5 -43q0 -12 -10 -25.5t-26 -17.5q-18 -4 -31 3t-18.5 20t-2.5 28t16 28q21 19 44 39t51.5 42.5t63.5 49.5t79 61q-13 21 -24.5 40.5t-20.5 32.5 q-20 0 -29 14q-5 8 -5.5 18t-0.5 19q1 12 8.5 22.5t18.5 15.5t23.5 3t23.5 -14q7 -8 15.5 -22t17.5 -29t17.5 -29.5t15.5 -23.5q24 18 51 38t53 39.5t51 38.5t45 35q14 11 27.5 7t21.5 -15q10 -12 9.5 -26.5t-15.5 -27.5q-43 -33 -96.5 -71.5t-105.5 -80.5q43 -60 82 -92 q21 -18 44.5 -22t43.5 7q15 7 27.5 3.5t18.5 -14.5z" />
<glyph unicode="y" horiz-adv-x="647" d="M571 251q2 -23 2 -60t-3 -82.5t-7.5 -97t-11.5 -104.5t-15 -105t-18 -98q-4 -20 -18 -28t-28 -5q-15 2 -24.5 14.5t-4.5 33.5q12 47 21 105t15 118t9.5 117.5t4.5 103.5q1 9 -2 13t-8.5 5t-11.5 -2t-11 -8q-16 -15 -40 -36t-51 -43.5t-54.5 -43.5t-50.5 -36 q-42 -26 -80.5 -32.5t-72.5 20.5q-12 11 -23.5 30t-12.5 51q0 24 7.5 51.5t19.5 53.5t25.5 48t24.5 35q11 14 26 16t26 -3q16 -8 20 -23.5t-11 -34.5q-9 -11 -19 -28t-19 -35t-14.5 -36t-5.5 -32q0 -11 4 -17.5t8 -10.5q9 -9 23.5 -6t34.5 16q30 19 62.5 44.5t65.5 54 t64.5 57.5t58.5 55q12 13 29 16t32 -2q13 -5 22.5 -17t11.5 -32z" />
<glyph unicode="z" horiz-adv-x="451" d="M490 29q2 -12 -3 -25.5t-22 -18.5q-25 -9 -69 -17.5t-93 -13.5t-96.5 -5.5t-79.5 5.5q-37 6 -48 37q-5 13 -1 30t18 35q18 23 39 45t41.5 41t38.5 35t31 28q20 18 15 30q-2 10 -25 10q-31 0 -65.5 1.5t-52.5 3.5q-19 2 -29.5 13.5t-10.5 25.5q0 19 18 30q12 8 26 8 q15 0 26 -8q12 -1 28 -1.5t32.5 -1t32 -1t26.5 -0.5q34 0 56.5 -11.5t30.5 -32.5q9 -20 0 -46t-39 -55q-12 -11 -27.5 -25t-33 -30t-34.5 -33t-31 -35q-7 -8 -4.5 -14.5t14.5 -7.5q20 -2 51.5 -0.5t66.5 5t69 9.5t60 14q17 5 29 -3t15 -21z" />
<glyph unicode="{" horiz-adv-x="269" d="M224 797q19 7 33 -0.5t19 -21.5t0 -29.5t-24 -22.5q-14 -5 -26 -12.5t-23 -17.5q-14 -27 -15.5 -56t2 -59t9.5 -60.5t8.5 -60.5t-3 -59.5t-23.5 -56.5q-11 -7 -21.5 -15.5t-21.5 -17.5q8 -11 12.5 -24t7.5 -27q21 -43 27.5 -88t8.5 -90.5t3.5 -91t10.5 -90.5l6 -1 q17 -1 32.5 2t31.5 6q20 4 32.5 -6t15.5 -24.5t-4.5 -29t-27.5 -18.5q-30 -7 -61 -10.5t-61 7.5q-28 16 -38 42t-13 55.5t-3 60.5t-7 57q6 28 4 56t-8.5 55.5t-15.5 54.5t-17 54q-11 5 -22.5 10.5t-19.5 16.5q-9 9 -11.5 19.5t0.5 20.5t11 17.5t21 9.5q17 1 29.5 13.5 t25.5 22.5q16 19 18.5 43.5t-1.5 51t-10 53.5t-6 51q-11 33 -6.5 66.5t20.5 62t42 50.5t59 31z" />
<glyph unicode="|" horiz-adv-x="303" d="M157 714q12 20 24 29.5t23 4.5q11 -7 15.5 -16t2.5 -29q-1 -12 -8 -25t-17 -27q-7 -62 -8.5 -142.5t-0.5 -166t2 -170t-0.5 -155.5t-7 -122.5t-18.5 -70.5q-8 -13 -18 -16t-21 1q-12 6 -16.5 13t1.5 23q8 18 11.5 61.5t5 102t1 128.5t-0.5 142q0 73 0.5 143t3.5 128.5 t9 102t17 61.5z" />
<glyph unicode="}" horiz-adv-x="298" d="M70 797q33 -9 59 -31t42 -50.5t20 -62t-6 -66.5q0 -24 -6 -51t-10 -53.5t-2 -51t19 -43.5q13 -10 25.5 -22.5t29.5 -13.5q13 -2 21 -9.5t11 -17.5t0.5 -20.5t-11.5 -19.5q-8 -11 -19.5 -16.5t-22.5 -10.5q-8 -27 -17 -54t-15.5 -54.5t-8.5 -55.5t4 -56q-7 -26 -7 -57 t-3 -60.5t-13 -55.5t-38 -42q-30 -11 -61 -7.5t-61 10.5q-20 4 -28 18.5t-5 29t16 24.5t33 6q16 -3 31.5 -6t32.5 -2l6 1q9 45 10.5 90.5t3.5 91t8.5 90.5t27.5 88q3 14 7.5 27t12.5 24q-11 9 -21.5 17.5t-21.5 15.5q-19 27 -24 56.5t-2.5 59.5t8.5 60.5t9.5 60.5t2 59 t-15.5 56q-11 10 -23 17.5t-26 12.5q-19 7 -24.5 22.5t0 29.5t19.5 21.5t33 0.5z" />
<glyph unicode="~" horiz-adv-x="377" d="M368 441q-9 -35 -27 -49.5t-40 -13.5q-37 0 -76 33q-18 15 -33 15q-20 0 -40 -32q-7 -12 -18.5 -14t-21.5 4q-8 4 -12.5 13.5t3.5 22.5q16 33 39.5 48t46.5 15q34 0 68 -26q29 -21 40 -21q12 0 18 20q5 14 16 17.5t20 0.5q10 -4 15.5 -13t1.5 -20z" />
<glyph unicode="&#xa1;" horiz-adv-x="337" d="M237 73q-5 -51 -9.5 -110t-8 -115l-6.5 -104t-6 -78q-1 -18 -12 -27t-25 -9q-11 0 -20.5 8t-12.5 24q-2 8 -2.5 19t-0.5 18q0 10 2 15.5t5 9.5q2 34 4.5 77.5t5.5 90.5t7 95t9 90q2 18 12.5 25.5t24.5 6.5t24.5 -10t8.5 -26zM260 316q14 -16 13.5 -38.5t-19.5 -38.5 q-14 -11 -33 -11t-32 11q-9 8 -13.5 19.5t-4.5 23.5t5 22.5t14 17.5q16 13 36 11.5t34 -17.5z" />
<glyph unicode="&#xa2;" horiz-adv-x="441" d="M220 297q-17 -12 -35.5 -31t-30.5 -44q-16 -32 -4.5 -52t64.5 -22q-2 35 1 74.5t5 74.5zM436 201q8 -9 7 -20.5t-17 -21.5q-11 -8 -24 -18.5t-33 -22.5q-18 -11 -43 -20.5t-51 -11.5q0 -15 0.5 -28.5t4.5 -19.5q10 -4 14 -12.5t3.5 -18t-6 -17t-14.5 -10.5 q-20 -7 -35.5 4t-20.5 35q-2 11 -4 30.5t-2 34.5q-50 3 -81.5 16.5t-45 35.5t-10.5 51.5t22 62.5q22 39 58 72t70 51q2 32 6.5 61.5t8.5 45.5q3 13 14.5 18t23.5 3q11 -2 18.5 -9.5t2.5 -21.5q-5 -16 -7.5 -35.5t-5.5 -39.5q11 4 24.5 4.5t19.5 -0.5q17 -2 24.5 -11t7.5 -20 t-7.5 -21.5t-18.5 -15.5q-10 -4 -23.5 -5.5t-21.5 5.5q-3 -2 -6 -2.5t-5 -2.5q-4 -41 -7.5 -86.5t-2.5 -90.5q17 0 35 6t29 13q14 9 29.5 22t27.5 19q13 5 24 2.5t18 -10.5z" />
<glyph unicode="&#xa3;" horiz-adv-x="551" d="M538 2q-15 -25 -48.5 -36.5t-72.5 -15t-76 -2t-60 2.5q-24 -14 -53.5 -18t-58 0.5t-54.5 17.5t-44 33q-10 9 -10 18t5 15q5 8 14 11.5t19 1.5q15 -2 35 -4.5t41.5 -5.5t43.5 -5t41 -3q8 5 7.5 16.5t-7.5 23.5q-3 6 -10.5 17t-17.5 24.5t-20.5 29t-19.5 30.5h-49 q-14 1 -23 9.5t-9 20.5q0 8 3.5 15t12.5 10q7 2 15 3t21 1q-15 26 -23.5 53.5t-8.5 54.5q0 40 21.5 75t75.5 60q19 8 43.5 15t50 11t49.5 4q25 0 45 -4q26 -5 51 -20t35 -34q8 -20 -7 -36q-5 -5 -11 -8t-14 -3q-15 1 -31.5 5t-30.5 14q-13 8 -11 23q-10 2 -27 2.5 t-36.5 -1.5t-39.5 -7t-38 -13q-31 -14 -45.5 -34t-14.5 -43q0 -24 9.5 -51t28.5 -61q42 0 88.5 2.5t81.5 2.5q16 0 23.5 -10t7.5 -20q0 -12 -8.5 -21t-22.5 -9q-27 -1 -64.5 -2.5t-72.5 -1.5q15 -23 29.5 -44t22.5 -34q11 -16 15.5 -35t-4.5 -32q24 -2 48 -1.5t45 3.5t37 9 t24 16q10 12 22.5 13.5t23.5 -4.5t14 -18t-6 -26z" />
<glyph unicode="&#xa4;" horiz-adv-x="646" d="M313 137q1 -10 -6 -19t-22 -11q-18 -2 -46 -2h-56q0 -14 2 -27.5t7 -24.5q10 -23 31.5 -39t62.5 -23q29 -5 60.5 -7t68 0t78.5 9t92 20q38 9 48 -25q5 -17 -2.5 -31.5t-28.5 -19.5q-101 -25 -184 -28.5t-149 8.5q-64 13 -98.5 38t-50.5 63q-18 38 -16 88h-22t-15 -1 q-5 0 -11 -4.5t-11 -7.5q-8 -5 -17 -4t-16 7q-14 10 -11 30q3 14 13.5 24t24.5 13q11 2 30 3t42 0q9 44 27 88q-5 0 -9.5 -0.5t-7.5 -0.5q-5 0 -11 -4.5t-11 -7.5q-8 -5 -17 -4t-16 7q-14 10 -11 30q3 14 13.5 24t24.5 13q11 2 31 3t44 0q27 46 63.5 91t78 84.5t85.5 71.5 t85 53q20 10 33 10t20 -7q11 -11 11 -29t-10 -35q-9 -15 -20.5 -20.5t-28.5 -3.5q-27 -16 -58 -39t-62 -51t-60 -60.5t-52 -66.5q26 -1 48 -1.5t36 1.5t22 -7t8 -20q1 -10 -6 -19t-22 -11q-21 -2 -53.5 -2.5t-64.5 0.5q-7 -13 -11 -25q-6 -16 -10.5 -32t-8.5 -32 q28 -2 52 -2q25 0 40 2q14 2 22 -7t8 -20z" />
<glyph unicode="&#xa5;" horiz-adv-x="533" d="M343 102q1 -10 -6 -19t-22 -11q-20 -2 -50 -2t-62 1q-13 -21 -25 -40t-20 -30q-11 -14 -26 -15t-26 7q-12 8 -16 20.5t7 28.5q5 8 9.5 15.5t9.5 15.5q-11 0 -19 -2q-5 0 -11 -4.5t-11 -7.5q-8 -5 -17 -4t-16 7q-14 10 -11 30q3 14 13.5 24t24.5 13q12 3 34.5 3.5 t48.5 -0.5q7 11 13 22t13 22q-17 1 -30.5 0.5t-19.5 -1.5q-5 0 -11 -4.5t-11 -7.5q-8 -5 -17 -4t-16 7q-14 10 -11 30q3 14 13.5 24t24.5 13q12 3 34.5 3.5t49.5 -0.5q-28 50 -45 91.5t-28.5 77.5t-18.5 66.5t-15 58.5q-5 13 3 23.5t21 15.5t26.5 1t19.5 -21 q11 -30 18 -58.5t16 -59t22.5 -65.5t37.5 -78q10 16 15 25.5t9.5 16.5t8.5 14.5t12 19t20.5 30t33.5 49.5q48 71 96 128q12 13 28.5 12t27.5 -9t14 -22t-11 -29q-23 -26 -47 -57t-45 -63t-33 -49.5t-18.5 -27t-10.5 -15t-8.5 -14t-13 -23t-24.5 -42.5q15 -1 27.5 -0.5 t21.5 1.5q14 2 22 -7t8 -20q1 -10 -6 -19t-22 -11q-14 -2 -33 -2.5t-40 0.5q-7 -5 -13 -5q-5 -8 -10.5 -18t-12.5 -22q23 -1 43 -1.5t33 1.5q14 2 22 -7t8 -20z" />
<glyph unicode="&#xa6;" horiz-adv-x="303" d="M157 714q12 20 24 29.5t23 4.5q11 -7 15.5 -16t2.5 -29q-1 -12 -8 -25t-17 -27q-7 -62 -8 -99t0.5 -57.5t3.5 -29.5t1.5 -15t-5.5 -14t-18 -27q-8 -13 -18 -16t-21 1q-12 6 -16.5 13t1.5 23q15 37 15 72t-1.5 70t1.5 70t25 72zM146 -55q-12 -20 -24 -29.5t-23 -4.5 q-11 8 -15.5 17t-1.5 29q1 12 8 25t17 26q7 62 8.5 99t0.5 57.5t-3 29.5t-1.5 15t6 14t18.5 27q8 13 18 16t21 -1q12 -7 16.5 -14t-1.5 -22q-16 -37 -16.5 -72t1 -70t-2.5 -70.5t-26 -71.5z" />
<glyph unicode="&#xa7;" horiz-adv-x="539" d="M276 115q26 -10 44.5 -30.5t27.5 -44.5q16 13 30 31.5t25.5 39.5t19 42t11.5 38q8 30 2 59.5t-34 41.5q-20 8 -50 11.5t-62 3.5q-6 0 -15 1t-16 3q-14 -5 -32.5 -17.5t-38 -29t-37.5 -35.5t-30 -36q-18 -24 -15 -39q6 -13 32 -16q17 -3 33 -4.5t32.5 -3.5t34.5 -5.5 t38 -9.5zM477 583q-2 -11 -11 -19t-23 -8q-6 0 -15 1t-16 3q-14 -5 -32.5 -17.5t-38 -29.5t-37.5 -35.5t-30 -35.5q-15 -20 -11.5 -34.5t33.5 -22.5q32 -4 63 -7t69 -15q29 -10 47.5 -31.5t26.5 -46.5q10 -26 11 -55t-6 -55q-11 -47 -33.5 -92t-60.5 -89q-21 -24 -54 -32 q0 -10 -1.5 -18.5t-3.5 -17.5q-11 -46 -33.5 -91.5t-60.5 -88.5q-17 -20 -40.5 -28.5t-48.5 -5.5q-23 3 -33.5 17.5t-9.5 29.5q2 17 14.5 27.5t34.5 5.5q19 -6 37 13t32 46t23.5 54t11.5 38q7 28 0.5 58t-32.5 43q-23 10 -58.5 14t-77.5 6q-74 5 -91 52q-8 22 0.5 51.5 t34.5 63.5q21 27 53.5 60.5t70.5 59.5q-14 27 -7.5 58.5t36.5 69.5q14 19 33.5 41t43 43t50 39t55.5 29q18 8 35.5 7.5t29.5 -8.5q14 -8 19 -21.5t1 -25.5z" />
<glyph unicode="&#xa8;" horiz-adv-x="376" d="M192 438q0 -19 -14 -33t-33 -14q-20 0 -33.5 13.5t-13.5 33.5q1 20 13.5 34.5t32.5 14.5t34 -14.5t14 -34.5zM360 438q-1 -20 -14.5 -33t-32.5 -14q-20 0 -33.5 13.5t-13.5 33.5t13 34.5t33 14.5q19 0 33.5 -14.5t14.5 -34.5z" />
<glyph unicode="&#xa9;" horiz-adv-x="864" d="M684 367q8 -13 6.5 -28.5t-20.5 -26.5q-18 -10 -51.5 -25t-77.5 -28.5t-97.5 -23.5t-111.5 -11q-54 -1 -92.5 12t-58 37.5t-19 58.5t24.5 76q15 26 36 50.5t47.5 46t56.5 39t63 29.5q12 4 29 5t29 -1q23 -3 33.5 -14.5t11.5 -25.5q0 -14 -9.5 -26.5t-26.5 -15.5 q-12 -3 -26 -1.5t-28 6.5q-18 -5 -39.5 -17t-41.5 -29.5t-37.5 -37.5t-27.5 -40q-8 -15 -8.5 -29.5t8.5 -25.5t26.5 -17.5t45.5 -6.5q50 0 98.5 9t90 22t72 27t44.5 22q15 8 28.5 4.5t21.5 -14.5zM115 185q14 -20 41 -35.5t69 -23.5q97 -14 185.5 -5t151.5 41 q49 22 91.5 59.5t85.5 94.5q-9 42 -30.5 96.5t-52.5 110t-71 106.5t-88 86q-48 36 -87.5 48t-69.5 10q-51 -4 -83.5 -45t-55.5 -106q-11 -32 -25.5 -71.5t-28 -81t-24.5 -80t-15 -68.5q-9 -40 -8.5 -75t15.5 -61zM50 162q-23 42 -26.5 91.5t13.5 108.5q9 31 21 67t24.5 72 t25 70t21.5 61q26 88 81.5 143t127.5 66q54 6 111 -13.5t120 -70.5q53 -43 93.5 -96t70 -107t48.5 -105t28 -91q13 -11 15.5 -23.5t-5.5 -23.5q6 -23 11 -54t6 -48q3 -29 -12 -41.5t-32 -18.5q-15 -2 -33 4t-20 17q-1 5 -2.5 13.5t-2.5 16.5q-33 -32 -69.5 -59.5 t-70.5 -44.5q-44 -22 -90.5 -32.5t-91.5 -13.5t-85.5 -0.5t-72.5 6.5q-70 5 -122.5 33.5t-81.5 72.5z" />
<glyph unicode="&#xab;" horiz-adv-x="372" d="M211 23q7 -10 4.5 -19t-9.5 -14q-8 -5 -17.5 -4.5t-17.5 9.5q-10 12 -22.5 28.5t-25 34t-24.5 34t-21 30.5q-8 13 -8.5 23t8.5 24q8 13 20 29.5t25 33t26.5 32t24.5 27.5q8 9 17 9q10 0 17 -6q7 -5 8.5 -15t-6.5 -19q-26 -30 -47.5 -56.5t-36.5 -49.5q-5 -7 0 -15 q17 -27 40 -56t45 -60zM342 23q7 -10 4.5 -19t-9.5 -14q-8 -5 -17.5 -4.5t-17.5 9.5q-10 12 -22.5 28.5t-25 34t-24.5 34t-21 30.5q-8 13 -8.5 23t8.5 24q8 13 20 29.5t25 33t26.5 32t24.5 27.5q8 9 17 9q10 0 17 -6q7 -5 8.5 -15t-6.5 -19q-26 -30 -47.5 -56.5t-36.5 -49.5 q-5 -7 0 -15q17 -27 40 -56t45 -60z" />
<glyph unicode="&#xac;" horiz-adv-x="822" d="M651 488q3 18 -2 22q-4 3 -10.5 2.5t-11.5 -4.5q-4 -2 -8 -5.5t-9 -8.5q-11 -11 -21.5 -27.5t-15.5 -33.5q12 2 25 7.5t24 13t19 16.5t10 18zM345 245q0 -16 -17 -16q-14 0 -14 16v53q-5 3 -3.5 10.5t3.5 12.5q6 12 18 12q5 0 9 -3.5t5 -10.5v-15q0 -9 -0.5 -20.5 t-0.5 -22.5v-16zM658 115q-1 -1 -2 -1q-5 -5 -10 -11t-8 -11q-2 -2 -2 -4t-2 -6q-1 -7 -0.5 -14t0.5 -15q0 -9 -6 -14t-13 -5q-6 0 -12.5 4.5t-8.5 14.5q-4 13 -4 36q-5 -1 -9 -1.5t-8 -0.5q-23 -2 -35.5 2.5t-20.5 18.5q-5 5 -8 14.5t-3 16.5q-2 9 -11 3q-12 -7 -31.5 -25 t-37.5 -33q-16 -12 -32 -15q-19 -12 -51 -21t-67 -16t-70 -10.5t-60 -3.5q-40 2 -53 16q-21 21 -2 86q23 76 33.5 139t16.5 110q0 10 7.5 15t14.5 3q8 -1 14 -6t5 -14q-5 -57 -17.5 -122t-33.5 -135q-11 -35 -1 -44q5 -7 25 -7t46 3t52.5 7.5t51.5 11t43 13.5q-2 5 -2 21 q0 11 3 22.5t8 22.5q17 32 45.5 60.5t51.5 42.5q9 7 21 14t26 11t29.5 1.5t31.5 -15.5q12 -11 5 -25q-4 -8 -13.5 -10t-18.5 3q-22 17 -61 -8q-10 -7 -21.5 -17.5t-23 -22.5t-21.5 -25t-16 -25q-3 -7 -4 -16t4 -13q5 -5 16 5q9 7 20.5 17.5t24.5 21t25.5 20t22.5 14.5 q17 10 30.5 7t13.5 -21q-1 -11 0 -20.5t4 -15.5q3 -9 8.5 -12t14.5 -3q7 0 18 3q2 49 8 99.5t13 81.5q0 2 0.5 4t0.5 4q-16 -1 -33 2q-25 3 -39 17q-19 19 -19 50q-28 3 -46 26q-9 13 -14 28t-9 26q-4 23 -31 8q-8 -4 -19 -12t-23 -18.5t-23.5 -21.5t-20.5 -21 q-12 -15 -27 -12t-16 22q-4 42 -4.5 80.5t3.5 73.5q-11 0 -22 -0.5t-23 -0.5q-2 -23 -2.5 -57.5t-0.5 -69.5t1.5 -64t3.5 -40q5 -5 8.5 -10.5t1.5 -10.5q-1 -11 -8.5 -15.5t-16.5 -2.5q-8 1 -16 8t-9 23q-3 22 -4 51.5t-0.5 62l1 65t0.5 60.5q-20 -1 -42.5 -1.5t-44.5 -0.5 t-41.5 0.5t-32.5 1.5q-10 0 -16 6.5t-5 13.5q1 8 5.5 14t14.5 5q24 -1 54.5 -1.5t63.5 -0.5h68h67q5 27 13.5 49.5t21.5 39.5q6 8 13.5 8.5t14.5 -1.5q8 -5 11.5 -13t-4.5 -16q-21 -25 -28 -67h50q15 0 20.5 -6.5t3.5 -14.5q-2 -13 -15 -21q-14 -7 -28 5q-8 0 -17 0.5 t-20 0.5q-4 -31 -4.5 -61t0.5 -54q8 8 18 17.5t20.5 18.5t20.5 15.5t17 9.5q17 6 32.5 9.5t27.5 1.5q22 -3 28 -38q2 -11 7 -24.5t10 -21.5q6 -12 19 -13q10 32 26 55.5t29 37.5q8 7 15.5 13t13.5 8q13 6 30 9t31 -5q17 -10 19 -28.5t-3 -38.5q-5 -17 -17.5 -31.5 t-29.5 -26.5q-3 -6 -9 -9q-20 -9 -36.5 -15t-33.5 -8q-2 -25 23 -28q18 -4 39.5 -0.5t42.5 9.5t40 13.5t31 10.5q9 3 14.5 0t7.5 -9q5 -8 2.5 -16t-12.5 -11q-16 -5 -40 -14.5t-53 -16.5l-4 -10t-3 -9q-5 -29 -11 -73t-8 -89q2 2 8 4q1 0 2 1q5 4 10.5 6.5t10.5 4.5 q14 9 34.5 16t41.5 10t36 -1.5t23 -13.5q11 -13 10 -34.5t-15 -46.5q-6 -13 -15.5 -27t-20.5 -28q-20 -20 -43 -35.5t-46 -30.5q-16 -10 -26 7q-5 7 -2.5 14.5t8.5 12.5q25 16 45 30t35 31q10 11 18 23t12 23q11 20 4 30q-5 7 -24 6q-13 -2 -32.5 -8.5t-37.5 -17.5 q-2 -1 -2.5 -1.5t-2.5 -1.5t-5 -4z" />
<glyph unicode="&#xad;" horiz-adv-x="502" d="M448 191q1 -10 -6 -19t-22 -11q-21 -2 -54 -2t-66 0.5t-60.5 1t-37.5 -1.5q-5 0 -11 -4.5t-11 -7.5q-8 -5 -17 -4t-16 7q-14 10 -11 30q3 14 13.5 24t24.5 13q16 4 49 4t70 -1.5t71 -2.5t54 1q14 2 22 -7t8 -20z" />
<glyph unicode="&#xae;" horiz-adv-x="505" d="M367 508q-3 -6 -9.5 -8.5t-14.5 1.5q-6 4 -10 4.5t-9 -0.5q-17 -3 -44 -14.5t-49 -25.5q-9 -7 -15.5 -12.5t-9.5 -10.5q-5 -8 -6 -14t-2 -14q-1 -10 -7 -14.5t-14 -4.5q-7 0 -13 5.5t-6 15.5q-1 21 -0.5 50.5t2.5 47.5q-4 1 -4.5 4.5t1.5 6.5q3 5 5 10t5 10q2 8 9 10 t14 0q6 -2 10.5 -7t2.5 -12q-2 -10 -3.5 -25t-1.5 -25q6 7 15 13q12 8 27.5 16t31.5 14.5t31.5 10.5t28.5 5q11 0 19 -3t13 -6q7 -6 7 -15q0 -8 -4 -13zM91 381q15 -23 59 -32q51 -7 98.5 -2t81.5 22q26 12 48.5 31.5t45.5 50.5q-5 22 -16.5 51.5t-28 59t-38 56.5t-47.5 45 q-25 20 -46 26.5t-37 4.5q-27 -2 -44.5 -23.5t-29.5 -56.5q-6 -17 -13.5 -38t-15 -43t-13 -43t-8.5 -37q-5 -21 -4.5 -39.5t8.5 -32.5zM56 369q-24 46 -7 107q5 16 11.5 35.5t13 38.5t13 37t11.5 32q14 47 43.5 76.5t68.5 35.5q29 3 59.5 -7.5t63.5 -37.5q28 -23 49.5 -51 t37.5 -57t26 -56t15 -48q7 -6 8.5 -13.5t-2.5 -12.5q3 -12 5.5 -29t2.5 -25q2 -16 -6.5 -22.5t-16.5 -9.5q-8 -2 -17.5 1.5t-10.5 9.5q-1 3 -1.5 7.5t-1.5 8.5q-18 -17 -37.5 -32t-36.5 -24q-24 -12 -49 -17.5t-49 -7t-45.5 0t-38.5 3.5q-38 3 -65.5 18t-43.5 39z" />
<glyph unicode="&#xaf;" horiz-adv-x="488" d="M400 706q1 -10 -6 -19t-22 -11q-21 -2 -54 -2t-66 0.5t-60.5 1t-37.5 -1.5q-5 0 -11 -4.5t-11 -7.5q-8 -5 -17 -4t-16 7q-14 10 -11 30q3 14 13.5 24t24.5 13q16 4 49 4t70 -1.5t71 -2.5t54 1q14 2 22 -7t8 -20z" />
<glyph unicode="&#xb0;" horiz-adv-x="243" d="M177 425q17 15 17 40q0 26 -17 41q-15 17 -41 17q-25 0 -40 -17q-17 -15 -17 -41q0 -25 17 -40q15 -17 40 -17q26 0 41 17zM203 399q-28 -26 -67 -26q-38 0 -66 26q-26 28 -26 66q0 39 26 67q28 26 66 26q39 0 67 -26q26 -28 26 -67q0 -38 -26 -66z" />
<glyph unicode="&#xb1;" horiz-adv-x="397" d="M358 145q1 -10 -6 -19t-22 -11q-21 -2 -54 -2t-66 1t-60.5 1.5t-37.5 -1.5q-5 0 -11 -4.5t-11 -7.5q-8 -5 -17 -4t-16 7q-14 10 -11 30q3 14 13.5 24t24.5 13q16 4 49 3.5t70 -2t71 -2.5t54 1q14 2 22 -7t8 -20zM208 222q-10 -1 -19 6t-11 22q-2 20 -2 51q0 32 1 64 q-25 1 -45 1q-19 0 -27 -2q-5 0 -11 -4.5t-11 -7.5q-8 -5 -17 -4t-16 7q-14 10 -11 30q3 14 13.5 24t24.5 13t41.5 3.5t59.5 -1.5v26q0 12 -1 18q0 5 -4.5 11t-7.5 11q-5 8 -4 17t7 16q10 14 30 11q14 -3 24 -13.5t13 -24.5q2 -11 3 -31t0 -43q26 -1 47.5 -1.5t35.5 1.5 t22 -7t8 -20q1 -10 -6 -19t-22 -11q-16 -2 -39 -2h-48q-2 -33 -2.5 -63.5t1.5 -47.5q2 -14 -7 -22t-20 -8z" />
<glyph unicode="&#xb4;" horiz-adv-x="317" d="M301 481q7 -11 4.5 -21.5t-13.5 -17.5q-15 -9 -35.5 -20t-42.5 -23t-43 -22.5t-36 -17.5q-14 -6 -24 -2t-15 15q-5 10 -2.5 20.5t15.5 18.5q16 8 36.5 18.5t41.5 21t41.5 21t35.5 18.5q11 8 21 4.5t16 -13.5z" />
<glyph unicode="&#xb5;" d="M730 77q6 -12 3.5 -26.5t-18.5 -24.5q-23 -14 -57 -26t-72 -19q-34 -5 -69 5t-53 38q-8 14 -12.5 29.5t-6.5 38.5q-20 -26 -49 -54.5t-55 -45.5q-41 -27 -80 -35.5t-73 -0.5q-14 4 -19 4.5t-15 9.5q-7 -38 -8.5 -68.5t-0.5 -43.5q-1 -4 2.5 -11t5.5 -12q5 -9 2.5 -18 t-9.5 -14q-5 -5 -13.5 -7.5t-18.5 0.5q-13 5 -30 15.5t-19 24.5q13 42 17.5 100.5t7.5 119.5t9 118t21 95q6 16 18 23t25 7q15 0 26.5 -11.5t4.5 -31.5q-7 -22 -12 -49t-8 -53.5t-2 -50.5t6 -40q7 -25 32 -33q17 -5 40.5 0t47.5 22q59 42 97 94t55 100q6 14 19 18.5t27 2.5 q14 -4 23 -14.5t5 -25.5q-11 -44 -12 -80t8 -61q8 -20 23 -26t34 -4q29 3 56.5 13.5t47.5 21.5q17 10 30 5t19 -19z" />
<glyph unicode="&#xb6;" horiz-adv-x="648" d="M542 520q-23 -6 -42 -11.5t-52 -11.5q6 -27 13.5 -68t15.5 -90t14 -103.5t9 -109t1 -107t-11 -96.5q-5 -21 -19 -27.5t-29 -2.5q-14 3 -22.5 13t-4.5 25q3 14 4 39.5t0.5 57t-1.5 66.5t-2.5 67.5t-2.5 60t-2 45.5q-30 13 -73 13.5t-87 -2.5t-82 -4.5t-58 7.5 q-48 23 -71.5 52.5t-22.5 60.5q1 37 35.5 69t106.5 52q43 11 91 20.5l96 19t93.5 19t84.5 20.5q7 8 18 13t22 5q17 0 29 -8.5t16 -21.5q1 -5 1.5 -9t-0.5 -9q3 -34 3 -82t-2.5 -97.5t-6.5 -94.5t-9 -73q-5 -21 -19 -27.5t-29 -2.5q-14 3 -22.5 13t-4.5 25q4 21 8.5 57 t8 76.5t5.5 79.5t1 65z" />
<glyph unicode="&#xb7;" horiz-adv-x="203" d="M134 264q-16 -11 -36 -10.5t-34 16.5t-14 38q0 23 20 39q15 11 33.5 10t30.5 -10q10 -7 14.5 -18.5t4.5 -23.5t-4.5 -23t-14.5 -18z" />
<glyph unicode="&#xb8;" horiz-adv-x="401" d="M268 -110q-14 -23 -36 -37t-47 -17q-14 -2 -21.5 5t-9 16t3.5 18t17 12q14 4 24.5 9t15.5 11q5 5 4 10.5t-12 8.5q-29 8 -29 38q0 19 6 42q4 16 14 21.5t19.5 3.5t16 -9.5t3.5 -16.5q-2 -8 -4 -15t-2 -11q0 -6 2 -8.5t10 -4.5q16 -5 23.5 -14.5t9 -20.5t-1 -22t-6.5 -19z " />
<glyph unicode="&#xbb;" horiz-adv-x="372" d="M224 117q-9 -14 -21 -30.5t-25 -33t-26 -31.5t-24 -27q-8 -8 -18 -8q-9 0 -16 6q-7 5 -8.5 14.5t6.5 18.5q26 31 48 58t36 48q5 6 0 15q-17 27 -40 56.5t-45 59.5q-6 10 -4.5 19t9.5 14t17 4.5t18 -9.5q10 -12 22.5 -28.5t25.5 -34t25 -34.5t20 -30q10 -15 9 -24.5 t-9 -22.5zM355 117q-9 -14 -21 -30.5t-25 -33t-26 -31.5t-24 -27q-8 -8 -18 -8q-9 0 -16 6q-7 5 -8.5 14.5t6.5 18.5q26 31 48 58t36 48q5 6 0 15q-17 27 -40 56.5t-45 59.5q-6 10 -4.5 19t9.5 14t17 4.5t18 -9.5q10 -12 22.5 -28.5t25.5 -34t25 -34.5t20 -30 q10 -15 9 -24.5t-9 -22.5z" />
<glyph unicode="&#xbf;" horiz-adv-x="416" d="M377 -357q-8 -10 -21.5 -14.5t-32.5 2.5q-47 19 -91 34.5t-78 26.5q-45 15 -66.5 42.5t-19.5 58.5q0 47 47 88q71 63 122 113t65 76q-1 21 3 37q2 11 10 17.5t17.5 8t19 -2t15.5 -11.5q11 -16 7.5 -41t-17.5 -48q-14 -21 -35.5 -44.5t-47.5 -48t-54 -51t-55 -53.5 q-20 -18 -20 -36q2 -22 36 -36q26 -11 63.5 -24t67.5 -24q11 2 26 -2.5t30 -15.5q14 -13 15 -27t-6 -25zM331 294q14 -16 13.5 -38.5t-20.5 -38.5q-14 -11 -32.5 -10t-31.5 10q-10 7 -15 18.5t-4.5 23.5t5.5 23t15 18q16 11 36 10.5t34 -16.5z" />
<glyph unicode="&#xc0;" horiz-adv-x="702" d="M452 717q-6 -7 -16 -10t-21 5q-29 22 -60.5 46t-59.5 47q-12 9 -11 20t8 19q6 8 17 11t21 -5q31 -25 60.5 -48t57.5 -46q12 -8 11 -19.5t-7 -19.5zM523 201q-35 81 -64.5 167.5t-61.5 165.5q-21 -42 -46 -93.5t-50.5 -105.5t-51 -107.5t-47.5 -99.5q36 8 76 17t81.5 18.5 l83 19t80.5 18.5zM704 17q11 -15 10 -30t-12 -23q-14 -10 -31.5 -8.5t-29.5 17.5q-8 10 -18 26t-20 34t-19.5 35.5t-15.5 31.5q-3 7 -8 16.5t-11 20.5q-44 -11 -93 -23t-99.5 -23.5t-100 -22.5t-93.5 -21q-8 -17 -16.5 -35t-19.5 -38q0 -10 -5 -24t-23 -23q-10 -5 -24 -5 q-13 0 -21 8q-13 12 -13 25t7 27q5 11 11.5 23t14.5 23q-22 -10 -39.5 -1.5t-17.5 28.5q0 11 8 22t29 17q12 4 25 6.5t28 7.5q19 37 42.5 84.5t48 99l49 103t46 96.5t39 79.5t28.5 51.5q0 13 9.5 24t27.5 12q13 1 23 -4t16 -19q22 -52 43.5 -109.5t42.5 -113t40.5 -105.5 t36.5 -87q13 2 24 4.5t20 4.5q11 2 23.5 -3.5t17.5 -28.5q0 -8 -5 -19.5t-19 -16.5q-7 -2 -15.5 -4.5t-16.5 -4.5q3 -7 7 -15l8 -16q5 -10 13 -24.5t17 -29.5t17 -28.5t14 -21.5z" />
<glyph unicode="&#xc1;" horiz-adv-x="702" d="M533 859q7 -11 4.5 -21.5t-13.5 -17.5q-15 -9 -35.5 -20t-42.5 -23t-43 -22.5t-36 -17.5q-14 -6 -24 -2t-15 15q-5 10 -2.5 20.5t15.5 18.5q16 8 36.5 18.5t41.5 21t41.5 21t35.5 18.5q11 8 21 4.5t16 -13.5zM523 201q-35 81 -64.5 167.5t-61.5 165.5q-21 -42 -46 -93.5 t-50.5 -105.5t-51 -107.5t-47.5 -99.5q36 8 76 17t81.5 18.5l83 19t80.5 18.5zM704 17q11 -15 10 -30t-12 -23q-14 -10 -31.5 -8.5t-29.5 17.5q-8 10 -18 26t-20 34t-19.5 35.5t-15.5 31.5q-3 7 -8 16.5t-11 20.5q-106 -26 -201.5 -47.5t-184.5 -42.5q-8 -17 -17.5 -36.5 t-20.5 -39.5q0 -10 -5 -24t-23 -23q-10 -5 -24 -5q-13 0 -21 8q-13 12 -13 25t7 27q5 11 11 22.5t14 22.5q-19 -2 -36 4.5t-18 26.5q0 4 1.5 10.5t5.5 13t11 11t19 4.5q13 3 27 6t26 8q19 37 42.5 84.5t48 99l49 103t46 96.5t39 79.5t28.5 51.5q0 13 9.5 24t27.5 12 q13 1 23 -4t16 -19q22 -52 43.5 -109.5t42.5 -113t40.5 -105.5t36.5 -87q13 2 24 4.5t20 4.5q11 2 23.5 -3.5t17.5 -28.5q0 -8 -5 -19.5t-19 -16.5q-7 -2 -15.5 -4.5t-16.5 -4.5q3 -7 7 -15l8 -16q5 -10 13 -24.5t17 -29.5t17 -28.5t14 -21.5z" />
<glyph unicode="&#xc2;" horiz-adv-x="702" d="M501 765q9 -11 8 -21.5t-9 -17.5t-17.5 -8t-19.5 7q-12 11 -25.5 24.5t-23.5 22.5q-3 4 -6 3.5t-6 -2.5q-17 -11 -39 -24.5t-42 -26.5q-11 -7 -22.5 -3.5t-16.5 13.5q-6 8 -5 18.5t13 18.5q27 16 54.5 33.5t48.5 29.5q24 16 44 -1q15 -14 33 -33t31 -33zM523 201 q-35 81 -64.5 167.5t-61.5 165.5q-21 -42 -46 -93.5t-50.5 -105.5t-51 -107.5t-47.5 -99.5q36 8 76 17t81.5 18.5l83 19t80.5 18.5zM704 17q11 -15 10 -30t-12 -23q-14 -10 -31.5 -8.5t-29.5 17.5q-8 10 -18 26t-20 34t-19.5 35.5t-15.5 31.5q-3 7 -8 16.5t-11 20.5 q-106 -26 -201.5 -47.5t-184.5 -42.5q-8 -17 -17.5 -36.5t-20.5 -39.5q0 -10 -5 -24t-23 -23q-10 -5 -24 -5q-13 0 -21 8q-13 12 -13 25t7 27q5 11 11 22.5t14 22.5q-19 -2 -36 4.5t-18 26.5q0 4 1.5 10.5t5.5 13t11 11t19 4.5q13 3 27 6t26 8q19 37 42.5 84.5t48 99l49 103 t46 96.5t39 79.5t28.5 51.5q0 13 9.5 24t27.5 12q13 1 23 -4t16 -19q22 -52 43.5 -109.5t42.5 -113t40.5 -105.5t36.5 -87q13 2 24 4.5t20 4.5q11 2 23.5 -3.5t17.5 -28.5q0 -8 -5 -19.5t-19 -16.5q-7 -2 -15.5 -4.5t-16.5 -4.5q3 -7 7 -15l8 -16q5 -10 13 -24.5t17 -29.5 t17 -28.5t14 -21.5z" />
<glyph unicode="&#xc3;" horiz-adv-x="702" d="M539 762q-9 -35 -27 -49.5t-40 -13.5q-37 0 -76 33q-18 15 -33 15q-20 0 -40 -32q-7 -12 -18.5 -14t-21.5 4q-8 4 -12.5 13.5t3.5 22.5q16 33 39.5 48t46.5 15q34 0 68 -26q29 -21 40 -21q12 0 18 20q5 14 16 17.5t20 0.5q10 -4 15.5 -13t1.5 -20zM523 201 q-35 81 -64.5 167.5t-61.5 165.5q-21 -42 -46 -93.5t-50.5 -105.5t-51 -107.5t-47.5 -99.5q36 8 76 17t81.5 18.5l83 19t80.5 18.5zM704 17q11 -15 10 -30t-12 -23q-14 -10 -31.5 -8.5t-29.5 17.5q-8 10 -18 26t-20 34t-19.5 35.5t-15.5 31.5q-3 7 -8 16.5t-11 20.5 q-106 -26 -201.5 -47.5t-184.5 -42.5q-8 -17 -17.5 -36.5t-20.5 -39.5q0 -10 -5 -24t-23 -23q-10 -5 -24 -5q-13 0 -21 8q-13 12 -13 25t7 27q5 11 11 22.5t14 22.5q-19 -2 -36 4.5t-18 26.5q0 4 1.5 10.5t5.5 13t11 11t19 4.5q13 3 27 6t26 8q19 37 42.5 84.5t48 99l49 103 t46 96.5t39 79.5t28.5 51.5q0 13 9.5 24t27.5 12q13 1 23 -4t16 -19q22 -52 43.5 -109.5t42.5 -113t40.5 -105.5t36.5 -87q13 2 24 4.5t20 4.5q11 2 23.5 -3.5t17.5 -28.5q0 -8 -5 -19.5t-19 -16.5q-7 -2 -15.5 -4.5t-16.5 -4.5q3 -7 7 -15l8 -16q5 -10 13 -24.5t17 -29.5 t17 -28.5t14 -21.5z" />
<glyph unicode="&#xc4;" horiz-adv-x="702" d="M523 201q-35 81 -64.5 167.5t-61.5 165.5q-21 -42 -46 -93.5t-50.5 -105.5t-51 -107.5t-47.5 -99.5q36 8 76 17t81.5 18.5l83 19t80.5 18.5zM704 17q11 -15 10 -30t-12 -23q-14 -10 -31.5 -8.5t-29.5 17.5q-8 10 -18 26t-20 34t-19.5 35.5t-15.5 31.5q-3 7 -8 16.5 t-11 20.5q-108 -27 -202.5 -49t-183.5 -42q-8 -17 -17.5 -36t-20.5 -39q0 -10 -5 -24t-23 -23q-10 -5 -24 -5q-13 0 -21 8q-13 12 -13 25t7 27q5 11 11.5 23t14.5 23q-21 -5 -37.5 2.5t-17.5 27.5q0 8 7 19.5t30 19.5q12 4 25 6.5t28 7.5q19 37 42.5 84.5t48 99l49 103 t46 96.5t39 79.5t28.5 51.5q0 13 9.5 24t27.5 12q13 1 23 -4t16 -19q22 -52 43.5 -109.5t42.5 -113t40.5 -105.5t36.5 -87q13 2 24 4.5t20 4.5q11 2 23.5 -3.5t17.5 -28.5q0 -8 -5 -19.5t-19 -16.5q-7 -2 -15.5 -4.5t-16.5 -4.5q3 -7 7 -15l8 -16q5 -10 13 -24.5t17 -29.5 t17 -28.5t14 -21.5zM362 774q0 -19 -14 -33t-33 -14q-20 0 -33.5 13.5t-13.5 33.5q1 20 13.5 34.5t32.5 14.5t34 -14.5t14 -34.5zM530 774q-1 -20 -14.5 -33t-32.5 -14q-20 0 -33.5 13.5t-13.5 33.5t13 34.5t33 14.5q19 0 33.5 -14.5t14.5 -34.5z" />
<glyph unicode="&#xc5;" horiz-adv-x="702" d="M523 201q-35 81 -64.5 167.5t-61.5 165.5q-21 -42 -46 -93.5t-50.5 -105.5t-51 -107.5t-47.5 -99.5q36 8 76 17t81.5 18.5l83 19t80.5 18.5zM457 726q12 10 17.5 24t5.5 29t-5.5 29.5t-17.5 24.5q-10 11 -24.5 16.5t-29.5 5.5t-29 -5.5t-24 -16.5q-11 -10 -16 -24.5 t-5 -29.5t5 -29t16 -24q10 -11 24 -16t29 -5t29.5 5t24.5 16zM704 17q11 -15 10 -30t-12 -23q-14 -10 -31.5 -8.5t-29.5 17.5q-8 10 -18 26t-20 34t-19.5 35.5t-15.5 31.5q-3 7 -8 16.5t-11 20.5q-108 -27 -202.5 -49t-183.5 -42q-8 -17 -17.5 -36t-20.5 -39q0 -10 -5 -24 t-23 -23q-10 -5 -24 -5q-13 0 -21 8q-13 12 -13 25t7 27q5 11 11.5 23t14.5 23q-23 -6 -38.5 2t-16.5 28q0 8 7 19.5t30 19.5q12 4 26 7t27 7q19 37 42.5 84.5t48 99l49 103t46 96.5t39 79.5t28.5 51.5q0 13 9.5 24t27.5 12q13 1 23 -4t16 -19q22 -52 43.5 -109.5t42.5 -113 t40.5 -105.5t36.5 -87q24 6 44 9q11 2 23.5 -3.5t17.5 -28.5q0 -8 -5 -19.5t-19 -16.5q-7 -2 -15.5 -4.5t-16.5 -4.5q3 -7 7 -15l8 -16q5 -10 13 -24.5t17 -29.5t17 -28.5t14 -21.5zM470 713q-28 -26 -67 -26q-38 0 -66 26q-26 28 -26 66q0 39 26 67q28 26 66 26 q39 0 67 -26q26 -28 26 -67q0 -38 -26 -66z" />
<glyph unicode="&#xc6;" horiz-adv-x="1008" d="M994 548q0 -14 -9.5 -25.5t-29.5 -9.5q-30 2 -69 3.5t-79.5 0.5t-80 -3.5t-70.5 -7.5q-9 -2 -15.5 -7.5t-8.5 -16.5q-3 -20 -6 -43t-5 -47t-3 -47.5t-2 -44.5q34 7 75 14t82 13t79.5 11.5t67.5 9.5q17 1 26.5 -10t11.5 -25q2 -13 -5.5 -25t-24.5 -14q-72 -11 -154.5 -23 t-157.5 -28q-1 -23 -1.5 -50.5t0 -55t2 -52.5t4.5 -42q3 -15 12.5 -21t25.5 -6q40 0 85 8.5t101 27.5q26 9 47 21t37 29q12 14 28 14t26 -11q10 -9 12 -23.5t-9 -28.5q-20 -25 -50 -42t-65 -29q-25 -9 -54 -16.5t-58.5 -13t-57.5 -8t-50 -1.5q-41 0 -68 17.5t-35 59.5 q-4 20 -6.5 47.5t-3 56.5t-0.5 56q0 28 1 48q-48 -9 -92.5 -20.5t-88.5 -23.5q-20 -5 -33.5 4t-16.5 23q-10 37 32 48q48 12 99.5 24.5t100.5 20.5q1 22 2.5 49t4 53.5t5 49.5t4.5 38q1 9 -7.5 10.5t-16.5 -3.5q-36 -23 -99.5 -76.5t-149.5 -150.5q-56 -63 -109 -135 t-95 -148q2 -11 -1 -18q-4 -10 -12 -19.5t-16 -17.5q-14 -11 -27.5 -10t-24.5 9q-9 9 -12.5 21t3.5 27q19 40 46 83.5t58 87t65.5 86.5t69.5 83t73 78t75 71t71 59.5t61 43.5q22 14 45 19t36 -7q7 4 14.5 5.5l17.5 3.5q36 6 79.5 9t88.5 4.5t89 1t81 -3.5q18 -2 26.5 -13.5 t8.5 -25.5z" />
<glyph unicode="&#xc7;" horiz-adv-x="646" d="M418 -210q-14 -23 -36 -37t-47 -17q-14 -2 -21.5 5t-9 16t3.5 18t17 12q14 4 24.5 9t15.5 11q5 5 4 10.5t-12 8.5q-29 8 -29 38q0 19 6 42q0 3 1 4q-20 1 -37 3t-31 4q-60 11 -94.5 35t-52.5 66q-11 25 -14 54.5t0.5 61t12.5 63.5t22 63q22 53 60 106t84.5 100t97 85.5 t97.5 62.5q20 10 33 10t20 -7q11 -11 11 -29t-10 -35q-9 -15 -20.5 -20.5t-28.5 -3.5q-35 -20 -76 -52.5t-79.5 -72t-70.5 -85t-49 -91.5q-8 -23 -15 -46.5t-10 -46t-2 -43.5t9 -39q10 -23 31.5 -39t62.5 -23q29 -5 60.5 -7t68 0t78.5 9t92 20q38 9 48 -25q5 -17 -2 -30.5 t-27 -18.5q-63 -15 -117 -21.5t-99 -8.5q0 -1 -0.5 -1.5t-0.5 -2.5q-2 -8 -4 -15t-2 -11q0 -6 2 -8.5t10 -4.5q16 -5 23.5 -14.5t9 -20.5t-1 -22t-6.5 -19z" />
<glyph unicode="&#xc8;" horiz-adv-x="664" d="M456 666q-6 -7 -16 -10t-21 5q-29 22 -60.5 46t-59.5 47q-12 9 -11 20t8 19q6 8 17 11t21 -5q31 -25 60.5 -48t57.5 -46q12 -8 11 -19.5t-7 -19.5zM644 32q-20 -24 -49 -41t-64 -29q-25 -9 -59.5 -18.5t-72 -16.5t-75.5 -12t-69 -5q-27 -1 -48 9t-36 33q-13 19 -20 46 t-7 61q0 14 3 34t7.5 41t9 40.5l7.5 32.5q-10 -2 -27 -3.5t-25 0.5q-20 -1 -31 9t-12 24q0 19 21 36q10 8 25 10t26 -4q11 1 23 2.5t23 3.5q16 44 28 88t15 71q1 11 0.5 20t-2.5 16q-17 -5 -39.5 -11.5t-42.5 -13.5q-19 -7 -30.5 0.5t-15.5 20.5t2.5 28t23.5 22 q60 23 124 35t126.5 17.5t119.5 6t102 -0.5q20 0 30 -12.5t8 -25.5q-1 -14 -10.5 -25t-27.5 -9q-73 3 -150 -0.5t-144 -16.5q4 -8 4.5 -17.5t-0.5 -20.5q-2 -34 -13.5 -76.5t-24.5 -84.5q38 6 79 12.5t80 13.5t74 13.5t60 12.5q16 4 26 -5t12 -23q2 -13 -4 -26.5t-24 -18.5 q-25 -6 -66.5 -14t-88 -16t-92.5 -15.5t-79 -12.5q-14 -42 -23 -82.5t-10 -75.5q-1 -19 2.5 -35t11.5 -25q14 -13 36 -11q45 2 109 13t124 31q26 9 46.5 20t36.5 30q13 13 27 13q15 0 26 -9q10 -8 13 -24t-9 -30z" />
<glyph unicode="&#xc9;" horiz-adv-x="664" d="M523 760q7 -11 4.5 -21.5t-13.5 -17.5q-15 -9 -35.5 -20t-42.5 -23t-43 -22.5t-36 -17.5q-14 -6 -24 -2t-15 15q-5 10 -2.5 20.5t15.5 18.5q16 8 36.5 18.5t41.5 21t41.5 21t35.5 18.5q11 8 21 4.5t16 -13.5zM644 32q-20 -24 -49 -41t-64 -29q-25 -9 -59.5 -18.5 t-72 -16.5t-75.5 -12t-69 -5q-27 -1 -48 9t-36 33q-13 19 -20 46t-7 61q0 14 3 34t7.5 41t9 40.5l7.5 32.5q-10 -2 -27 -3.5t-25 0.5q-20 -1 -31 9t-12 24q0 19 21 36q10 8 25 10t26 -4q11 1 23 2.5t23 3.5q16 44 28 88t15 71q1 11 0.5 20t-2.5 16q-17 -5 -39.5 -11.5 t-42.5 -13.5q-19 -7 -30.5 0.5t-15.5 20.5t2.5 28t23.5 22q60 23 124 35t126.5 17.5t119.5 6t102 -0.5q20 0 30 -12.5t8 -25.5q-1 -14 -10.5 -25t-27.5 -9q-73 3 -150 -0.5t-144 -16.5q4 -8 4.5 -17.5t-0.5 -20.5q-2 -34 -13.5 -76.5t-24.5 -84.5q38 6 79 12.5t80 13.5 t74 13.5t60 12.5q16 4 26 -5t12 -23q2 -13 -4 -26.5t-24 -18.5q-25 -6 -66.5 -14t-88 -16t-92.5 -15.5t-79 -12.5q-14 -42 -23 -82.5t-10 -75.5q-1 -19 2.5 -35t11.5 -25q14 -13 36 -11q45 2 109 13t124 31q26 9 46.5 20t36.5 30q13 13 27 13q15 0 26 -9q10 -8 13 -24 t-9 -30z" />
<glyph unicode="&#xca;" horiz-adv-x="664" d="M497 701q9 -11 8 -21.5t-9 -17.5t-17.5 -8t-19.5 7q-12 11 -25.5 24.5t-23.5 22.5q-3 4 -6 3.5t-6 -2.5q-17 -11 -39 -24.5t-42 -26.5q-11 -7 -22.5 -3.5t-16.5 13.5q-6 8 -5 18.5t13 18.5q27 16 54.5 33.5t48.5 29.5q24 16 44 -1q15 -14 33 -33t31 -33zM644 32 q-20 -24 -49 -41t-64 -29q-25 -9 -59.5 -18.5t-72 -16.5t-75.5 -12t-69 -5q-27 -1 -48 9t-36 33q-13 19 -20 46t-7 61q0 14 3 34t7.5 41t9 40.5l7.5 32.5q-10 -2 -27 -3.5t-25 0.5q-20 -1 -31 9t-12 24q0 19 21 36q10 8 25 10t26 -4q11 1 23 2.5t23 3.5q16 44 28 88t15 71 q1 11 0.5 20t-2.5 16q-17 -5 -39.5 -11.5t-42.5 -13.5q-19 -7 -30.5 0.5t-15.5 20.5t2.5 28t23.5 22q60 23 124 35t126.5 17.5t119.5 6t102 -0.5q20 0 30 -12.5t8 -25.5q-1 -14 -10.5 -25t-27.5 -9q-73 3 -150 -0.5t-144 -16.5q4 -8 4.5 -17.5t-0.5 -20.5 q-2 -34 -13.5 -76.5t-24.5 -84.5q38 6 79 12.5t80 13.5t74 13.5t60 12.5q16 4 26 -5t12 -23q2 -13 -4 -26.5t-24 -18.5q-25 -6 -66.5 -14t-88 -16t-92.5 -15.5t-79 -12.5q-14 -42 -23 -82.5t-10 -75.5q-1 -19 2.5 -35t11.5 -25q14 -13 36 -11q45 2 109 13t124 31 q26 9 46.5 20t36.5 30q13 13 27 13q15 0 26 -9q10 -8 13 -24t-9 -30z" />
<glyph unicode="&#xcb;" horiz-adv-x="664" d="M348 706q0 -19 -14 -33t-33 -14q-20 0 -33.5 13.5t-13.5 33.5q1 20 13.5 34.5t32.5 14.5t34 -14.5t14 -34.5zM516 706q-1 -20 -14.5 -33t-32.5 -14q-20 0 -33.5 13.5t-13.5 33.5t13 34.5t33 14.5q19 0 33.5 -14.5t14.5 -34.5zM644 32q-20 -24 -49 -41t-64 -29 q-25 -9 -59.5 -18.5t-72 -16.5t-75.5 -12t-69 -5q-27 -1 -48 9t-36 33q-13 19 -20 46t-7 61q0 14 3 34t7.5 41t9 40.5l7.5 32.5q-10 -2 -27 -3.5t-25 0.5q-20 -1 -31 9t-12 24q0 19 21 36q10 8 25 10t26 -4q11 1 23 2.5t23 3.5q16 44 28 88t15 71q1 11 0.5 20t-2.5 16 q-17 -5 -39.5 -11.5t-42.5 -13.5q-19 -7 -30.5 0.5t-15.5 20.5t2.5 28t23.5 22q60 23 124 35t126.5 17.5t119.5 6t102 -0.5q20 0 30 -12.5t8 -25.5q-1 -14 -10.5 -25t-27.5 -9q-73 3 -150 -0.5t-144 -16.5q4 -8 4.5 -17.5t-0.5 -20.5q-2 -34 -13.5 -76.5t-24.5 -84.5 q38 6 79 12.5t80 13.5t74 13.5t60 12.5q16 4 26 -5t12 -23q2 -13 -4 -26.5t-24 -18.5q-25 -6 -66.5 -14t-88 -16t-92.5 -15.5t-79 -12.5q-14 -42 -23 -82.5t-10 -75.5q-1 -19 2.5 -35t11.5 -25q14 -13 36 -11q45 2 109 13t124 31q26 9 46.5 20t36.5 30q13 13 27 13 q15 0 26 -9q10 -8 13 -24t-9 -30z" />
<glyph unicode="&#xcc;" horiz-adv-x="456" d="M324 648q-6 -7 -16 -10t-21 5q-29 22 -60.5 46t-59.5 47q-12 9 -11 20t8 19q6 8 17 11t21 -5q31 -25 60.5 -48t57.5 -46q12 -8 11 -19.5t-7 -19.5zM518 524q0 -14 -9 -24.5t-27 -12.5q-20 -2 -45 -2h-49q-24 0 -47.5 1t-41.5 3q2 -49 0 -104.5t-5.5 -113t-7.5 -114.5 t-7 -109q35 1 73 1h65q18 0 27 -10.5t9 -23.5q1 -14 -9 -26t-29 -12q-26 0 -65 -0.5t-83 -2.5q-5 -8 -13 -12t-17 -4q-8 0 -15.5 4t-11.5 12q-33 -1 -61.5 -2t-54.5 1q-19 0 -29.5 11.5t-10.5 25.5q0 13 10.5 24.5t29.5 11.5h54q25 0 57 2q3 55 6.5 112.5t6.5 114.5 t4.5 111.5t0.5 102.5q-23 1 -49 1t-49 -1q-10 -8 -23.5 -9t-25.5 1q-17 3 -27 14t-10 25q-1 12 8 23t29 15q13 3 32 4t40 1h42h40q4 8 12 12t17 4t17 -4.5t11 -13.5q42 -1 94.5 -1.5t98.5 0.5q18 0 28 -11t10 -25z" />
<glyph unicode="&#xcd;" horiz-adv-x="456" d="M413 771q7 -11 4.5 -21.5t-13.5 -17.5q-15 -9 -35.5 -20t-42.5 -23t-43 -22.5t-36 -17.5q-14 -6 -24 -2t-15 15q-5 10 -2.5 20.5t15.5 18.5q16 8 36.5 18.5t41.5 21t41.5 21t35.5 18.5q11 8 21 4.5t16 -13.5zM518 524q0 -14 -9 -24.5t-27 -12.5q-20 -2 -45 -2h-49 q-24 0 -47.5 1t-41.5 3q2 -49 0 -104.5t-5.5 -113t-7.5 -114.5t-7 -109q35 1 73 1h65q18 0 27 -10.5t9 -23.5q1 -14 -9 -26t-29 -12q-26 0 -65 -0.5t-83 -2.5q-5 -8 -13 -12t-17 -4q-8 0 -15.5 4t-11.5 12q-33 -1 -61.5 -2t-54.5 1q-19 0 -29.5 11.5t-10.5 25.5 q0 13 10.5 24.5t29.5 11.5h54q25 0 57 2q3 55 6.5 112.5t6.5 114.5t4.5 111.5t0.5 102.5q-23 1 -49 1t-49 -1q-10 -8 -23.5 -9t-25.5 1q-17 3 -27 14t-10 25q-1 12 8 23t29 15q13 3 32 4t40 1h42h40q4 8 12 12t17 4t17 -4.5t11 -13.5q42 -1 94.5 -1.5t98.5 0.5q18 0 28 -11 t10 -25z" />
<glyph unicode="&#xce;" horiz-adv-x="456" d="M369 693q9 -11 8 -21.5t-9 -17.5t-17.5 -8t-19.5 7q-12 11 -25.5 24.5t-23.5 22.5q-3 4 -6 3.5t-6 -2.5q-17 -11 -39 -24.5t-42 -26.5q-11 -7 -22.5 -3.5t-16.5 13.5q-6 8 -5 18.5t13 18.5q27 16 54.5 33.5t48.5 29.5q24 16 44 -1q15 -14 33 -33t31 -33zM518 524 q0 -14 -9 -24.5t-27 -12.5q-20 -2 -45 -2h-49q-24 0 -47.5 1t-41.5 3q2 -49 0 -104.5t-5.5 -113t-7.5 -114.5t-7 -109q35 1 73 1h65q18 0 27 -10.5t9 -23.5q1 -14 -9 -26t-29 -12q-26 0 -65 -0.5t-83 -2.5q-5 -8 -13 -12t-17 -4q-8 0 -15.5 4t-11.5 12q-33 -1 -61.5 -2 t-54.5 1q-19 0 -29.5 11.5t-10.5 25.5q0 13 10.5 24.5t29.5 11.5h54q25 0 57 2q3 55 6.5 112.5t6.5 114.5t4.5 111.5t0.5 102.5q-23 1 -49 1t-49 -1q-10 -8 -23.5 -9t-25.5 1q-17 3 -27 14t-10 25q-1 12 8 23t29 15q13 3 32 4t40 1h42h40q4 8 12 12t17 4t17 -4.5t11 -13.5 q42 -1 94.5 -1.5t98.5 0.5q18 0 28 -11t10 -25z" />
<glyph unicode="&#xcf;" horiz-adv-x="456" d="M228 698q0 -19 -14 -33t-33 -14q-20 0 -33.5 13.5t-13.5 33.5q1 20 13.5 34.5t32.5 14.5t34 -14.5t14 -34.5zM396 698q-1 -20 -14.5 -33t-32.5 -14q-20 0 -33.5 13.5t-13.5 33.5t13 34.5t33 14.5q19 0 33.5 -14.5t14.5 -34.5zM518 524q0 -14 -9 -24.5t-27 -12.5 q-20 -2 -45 -2h-49q-24 0 -47.5 1t-41.5 3q2 -49 0 -104.5t-5.5 -113t-7.5 -114.5t-7 -109q35 1 73 1h65q18 0 27 -10.5t9 -23.5q1 -14 -9 -26t-29 -12q-26 0 -65 -0.5t-83 -2.5q-5 -8 -13 -12t-17 -4q-8 0 -15.5 4t-11.5 12q-33 -1 -61.5 -2t-54.5 1q-19 0 -29.5 11.5 t-10.5 25.5q0 13 10.5 24.5t29.5 11.5h54q25 0 57 2q3 55 6.5 112.5t6.5 114.5t4.5 111.5t0.5 102.5q-23 1 -49 1t-49 -1q-10 -8 -23.5 -9t-25.5 1q-17 3 -27 14t-10 25q-1 12 8 23t29 15q13 3 32 4t40 1h42h40q4 8 12 12t17 4t17 -4.5t11 -13.5q42 -1 94.5 -1.5t98.5 0.5 q18 0 28 -11t10 -25z" />
<glyph unicode="&#xd0;" horiz-adv-x="674" d="M319 283q1 -10 -6 -19t-22 -11q-17 -2 -42.5 -2.5t-53.5 0.5q-6 -67 -10 -116t-4 -66q0 -12 7 -26t11 -24q8 -16 2 -26.5t-17 -16.5q-14 -5 -30 -1.5t-25 20.5q-6 11 -14.5 30t-8.5 43q0 20 4 69.5t10 115.5q-17 1 -29 0.5t-18 -1.5q-5 0 -11 -4.5t-11 -7.5q-8 -5 -17 -4 t-16 7q-14 10 -11 30q3 14 13.5 24t24.5 13q12 2 33.5 3t47.5 0q6 69 13 142t13 141q-8 5 -18 10t-19 8q-11 0 -21 5.5t-17 16.5q-9 12 -8 24t9 20q9 10 24 13.5t33 -4.5q60 -32 121.5 -65t116.5 -63.5t99 -56.5t70 -43q133 -86 132 -183q0 -30 -19.5 -66.5t-49.5 -72.5 t-67 -69t-71 -57q-50 -35 -106.5 -66t-119.5 -64q-17 -9 -30.5 -4t-21.5 17q-7 13 -3.5 28.5t20.5 24.5q63 33 118.5 63.5t99.5 62.5q25 18 54.5 45t55 56t42.5 57t17 49q0 30 -22.5 58t-67.5 58q-24 16 -58 36.5t-71.5 42t-76.5 42.5t-73 40q-5 -62 -11.5 -125.5 t-11.5 -123.5q27 -2 50 -2t38 2q14 2 22 -7t8 -20z" />
<glyph unicode="&#xd1;" d="M521 603q-9 -35 -27 -49.5t-40 -13.5q-37 0 -76 33q-18 15 -33 15q-20 0 -40 -32q-7 -12 -18.5 -14t-21.5 4q-8 4 -12.5 13.5t3.5 22.5q16 33 39.5 48t46.5 15q34 0 68 -26q29 -21 40 -21q12 0 18 20q5 14 16 17.5t20 0.5q10 -4 15.5 -13t1.5 -20zM630 459 q9 -33 9.5 -81.5t-4 -100t-13.5 -101t-21 -84.5q-16 -49 -49 -79.5t-75 -31.5q-26 1 -54 14.5t-57 45.5q-45 47 -88.5 111.5t-81.5 139.5q-4 -39 -7.5 -80t-6.5 -78.5t-4 -70.5t1 -56q2 -11 4 -19t10 -11q14 -5 18.5 -16.5t-0.5 -22.5t-14.5 -18.5t-24.5 -5.5 q-31 3 -46.5 23t-17.5 48q-4 37 -2.5 92.5t6 116t11 118.5t12.5 100q-5 11 -11.5 24.5t-9.5 27.5q-2 14 4 24.5t16 15.5q11 5 22.5 4t19.5 -11q5 -7 9 -14.5t8 -14.5q16 -2 22 -16t0 -31q16 -35 38 -78.5t48.5 -88.5t57 -87t62.5 -73q17 -17 31.5 -23.5t25.5 -5.5 q21 1 33 19.5t19 35.5q7 18 15 55t14 79.5t8 85t-2 72.5q-16 11 -14 31q1 16 10 26t21 15q14 5 28.5 -1t19.5 -24z" />
<glyph unicode="&#xd2;" horiz-adv-x="809" d="M442 568q-6 -7 -16 -10t-21 5q-29 22 -60.5 46t-59.5 47q-12 9 -11 20t8 19q6 8 17 11t21 -5q31 -25 60.5 -48t57.5 -46q12 -8 11 -19.5t-7 -19.5zM717 193q0 35 -51 81q-28 24 -63.5 45.5t-75.5 41.5q-48 23 -93 26.5t-82 -2.5q-14 -3 -28.5 0.5t-18.5 14.5 q-27 -20 -53.5 -55.5t-47.5 -75.5t-33.5 -77.5t-12.5 -61.5q2 -29 10 -54t25 -40q29 -27 89.5 -26.5t166.5 35.5q42 14 91 30.5t91 33.5q46 20 66 40.5t20 43.5zM795 195q-1 -49 -33.5 -88t-100.5 -65q-44 -17 -93 -33t-93 -33q-111 -41 -200.5 -37.5t-139.5 50.5 q-52 49 -52 141q0 39 15.5 88t42 96.5t62 89t74.5 66.5q3 21 16.5 32.5t35.5 4.5q14 -5 26 -18.5t6 -27.5q6 -4 16 -2q38 5 82.5 1t99.5 -31q41 -20 82 -45t76 -52q38 -29 58 -64t20 -73z" />
<glyph unicode="&#xd3;" horiz-adv-x="809" d="M533 709q7 -11 4.5 -21.5t-13.5 -17.5q-15 -9 -35.5 -20t-42.5 -23t-43 -22.5t-36 -17.5q-14 -6 -24 -2t-15 15q-5 10 -2.5 20.5t15.5 18.5q16 8 36.5 18.5t41.5 21t41.5 21t35.5 18.5q11 8 21 4.5t16 -13.5zM717 193q0 35 -51 81q-28 24 -63.5 45.5t-75.5 41.5 q-48 23 -93 26.5t-82 -2.5q-14 -3 -28.5 0.5t-18.5 14.5q-27 -20 -53.5 -55.5t-47.5 -75.5t-33.5 -77.5t-12.5 -61.5q2 -29 10 -54t25 -40q29 -27 89.5 -26.5t166.5 35.5q42 14 91 30.5t91 33.5q46 20 66 40.5t20 43.5zM795 195q-1 -49 -33.5 -88t-100.5 -65 q-44 -17 -93 -33t-93 -33q-111 -41 -200.5 -37.5t-139.5 50.5q-52 49 -52 141q0 39 15.5 88t42 96.5t62 89t74.5 66.5q3 21 16.5 32.5t35.5 4.5q14 -5 26 -18.5t6 -27.5q6 -4 16 -2q38 5 82.5 1t99.5 -31q41 -20 82 -45t76 -52q38 -29 58 -64t20 -73z" />
<glyph unicode="&#xd4;" horiz-adv-x="809" d="M541 613q9 -11 8 -21.5t-9 -17.5t-17.5 -8t-19.5 7q-12 11 -25.5 24.5t-23.5 22.5q-3 4 -6 3.5t-6 -2.5q-17 -11 -39 -24.5t-42 -26.5q-11 -7 -22.5 -3.5t-16.5 13.5q-6 8 -5 18.5t13 18.5q27 16 54.5 33.5t48.5 29.5q24 16 44 -1q15 -14 33 -33t31 -33zM717 193 q0 35 -51 81q-28 24 -63.5 45.5t-75.5 41.5q-48 23 -93 26.5t-82 -2.5q-14 -3 -28.5 0.5t-18.5 14.5q-27 -20 -53.5 -55.5t-47.5 -75.5t-33.5 -77.5t-12.5 -61.5q2 -29 10 -54t25 -40q29 -27 89.5 -26.5t166.5 35.5q42 14 91 30.5t91 33.5q46 20 66 40.5t20 43.5zM795 195 q-1 -49 -33.5 -88t-100.5 -65q-44 -17 -93 -33t-93 -33q-111 -41 -200.5 -37.5t-139.5 50.5q-52 49 -52 141q0 39 15.5 88t42 96.5t62 89t74.5 66.5q3 21 16.5 32.5t35.5 4.5q14 -5 26 -18.5t6 -27.5q6 -4 16 -2q38 5 82.5 1t99.5 -31q41 -20 82 -45t76 -52q38 -29 58 -64 t20 -73z" />
<glyph unicode="&#xd5;" horiz-adv-x="809" d="M533 621q-9 -35 -27 -49.5t-40 -13.5q-37 0 -76 33q-18 15 -33 15q-20 0 -40 -32q-7 -12 -18.5 -14t-21.5 4q-8 4 -12.5 13.5t3.5 22.5q16 33 39.5 48t46.5 15q34 0 68 -26q29 -21 40 -21q12 0 18 20q5 14 16 17.5t20 0.5q10 -4 15.5 -13t1.5 -20zM717 193q0 35 -51 81 q-28 24 -63.5 45.5t-75.5 41.5q-48 23 -93 26.5t-82 -2.5q-14 -3 -28.5 0.5t-18.5 14.5q-27 -20 -53.5 -55.5t-47.5 -75.5t-33.5 -77.5t-12.5 -61.5q2 -29 10 -54t25 -40q29 -27 89.5 -26.5t166.5 35.5q42 14 91 30.5t91 33.5q46 20 66 40.5t20 43.5zM795 195 q-1 -49 -33.5 -88t-100.5 -65q-44 -17 -93 -33t-93 -33q-111 -41 -200.5 -37.5t-139.5 50.5q-52 49 -52 141q0 39 15.5 88t42 96.5t62 89t74.5 66.5q3 21 16.5 32.5t35.5 4.5q14 -5 26 -18.5t6 -27.5q6 -4 16 -2q38 5 82.5 1t99.5 -31q41 -20 82 -45t76 -52q38 -29 58 -64 t20 -73z" />
<glyph unicode="&#xd6;" horiz-adv-x="809" d="M717 193q0 35 -51 81q-28 24 -63.5 45.5t-75.5 41.5q-48 23 -93 26.5t-82 -2.5q-14 -3 -28.5 0.5t-18.5 14.5q-27 -20 -53.5 -55.5t-47.5 -75.5t-33.5 -77.5t-12.5 -61.5q2 -29 10 -54t25 -40q29 -27 89.5 -26.5t166.5 35.5q42 14 91 30.5t91 33.5q46 20 66 40.5t20 43.5 zM795 195q-1 -49 -33.5 -88t-100.5 -65q-44 -17 -93 -33t-93 -33q-111 -41 -200.5 -37.5t-139.5 50.5q-52 49 -52 141q0 39 15.5 88t42 96.5t62 89t74.5 66.5q3 21 16.5 32.5t35.5 4.5q14 -5 26 -18.5t6 -27.5q6 -4 16 -2q38 5 82.5 1t99.5 -31q41 -20 82 -45t76 -52 q38 -29 58 -64t20 -73zM402 622q0 -19 -14 -33t-33 -14q-20 0 -33.5 13.5t-13.5 33.5q1 20 13.5 34.5t32.5 14.5t34 -14.5t14 -34.5zM570 622q-1 -20 -14.5 -33t-32.5 -14q-20 0 -33.5 13.5t-13.5 33.5t13 34.5t33 14.5q19 0 33.5 -14.5t14.5 -34.5z" />
<glyph unicode="&#xd7;" horiz-adv-x="397" d="M305 198q-7 -7 -18.5 -8t-22.5 9q-15 14 -35.5 37.5t-41.5 48.5q-19 -17 -33.5 -29t-19.5 -19q-4 -3 -5.5 -11t-3.5 -13q-7 -20 -26 -20q-8 0 -15.5 3.5t-12.5 11.5q-8 12 -6.5 27t9.5 26q9 12 29.5 30.5t44.5 38.5q-10 11 -17.5 19.5t-11.5 12.5q-4 3 -11.5 5t-12.5 4 q-10 2 -14.5 9.5t-5.5 17.5q-2 16 16 27q12 7 26.5 6t25.5 -10q9 -7 22.5 -21t29.5 -32q20 16 36 30t26 25q9 11 20.5 9.5t19.5 -9.5q7 -7 8.5 -18.5t-9.5 -22.5q-11 -12 -27.5 -27.5t-35.5 -32.5q20 -25 39.5 -48t32.5 -35q11 -9 10 -21t-10 -20z" />
<glyph unicode="&#xd8;" horiz-adv-x="809" d="M717 193q0 35 -51 81q-43 37 -104 69q-29 -39 -62 -81.5t-66.5 -85.5t-66.5 -84.5t-63 -80.5q58 5 145 34q42 14 91 30.5t91 33.5q46 20 66 40.5t20 43.5zM193 36q14 -14 36 -20q30 39 65 83t71.5 89t73 91t69.5 90q-43 17 -83 19t-73 -3q-14 -3 -28.5 0.5t-18.5 14.5 q-27 -20 -53.5 -55.5t-47.5 -75.5t-33.5 -77.5t-12.5 -61.5q2 -29 10 -54t25 -40zM678 536q-3 -20 -22 -54t-50 -78q29 -16 57.5 -34.5t53.5 -37.5q38 -29 58 -64t20 -73q-1 -49 -33.5 -88t-100.5 -65q-44 -17 -93 -33t-93 -33q-128 -46 -224 -35q-29 -40 -48 -70.5 t-24 -47.5t-13 -19.5t-21 1.5q-25 5 -22 34q2 18 18 48.5t44 69.5q-28 12 -50 32q-52 49 -52 141q0 39 15.5 88t42 96.5t62 89t74.5 66.5q3 21 16.5 32.5t35.5 4.5q14 -5 26 -18.5t6 -27.5q6 -4 16 -2q18 2 38 3t42 -2t46 -9.5t51 -19.5q15 21 28.5 41t25.5 39 q0 17 2.5 31.5t9.5 25.5q10 17 19.5 21t22.5 2q11 -2 15 -17t1 -38z" />
<glyph unicode="&#xd9;" horiz-adv-x="691" d="M436 650q-6 -7 -16 -10t-21 5q-29 22 -60.5 46t-59.5 47q-12 9 -11 20t8 19q6 8 17 11t21 -5q31 -25 60.5 -48t57.5 -46q12 -8 11 -19.5t-7 -19.5zM633 614q4 -18 9 -53.5t7 -83.5t-0.5 -104t-13 -114t-31 -114t-54.5 -104q-31 -45 -72.5 -81.5t-87.5 -56.5 q-56 -23 -108 -18t-92 42q-26 24 -44.5 61t-29.5 89q-13 65 -10 132t12 126t18.5 105t9.5 69q0 19 12.5 29t24.5 9q15 0 27 -10.5t12 -29.5q0 -30 -9.5 -79t-18.5 -106t-12 -117.5t10 -114.5q18 -75 50 -104q23 -23 53.5 -25t64.5 12t67 42.5t62 67.5q26 36 43 82.5t26.5 96 t12.5 99.5t1.5 94t-6 79t-9.5 55t4 34t23 19t29 -2t20 -26z" />
<glyph unicode="&#xda;" horiz-adv-x="691" d="M497 765q7 -11 4.5 -21.5t-13.5 -17.5q-15 -9 -35.5 -20t-42.5 -23t-43 -22.5t-36 -17.5q-14 -6 -24 -2t-15 15q-5 10 -2.5 20.5t15.5 18.5q16 8 36.5 18.5t41.5 21t41.5 21t35.5 18.5q11 8 21 4.5t16 -13.5zM633 614q4 -18 9 -53.5t7 -83.5t-0.5 -104t-13 -114t-31 -114 t-54.5 -104q-31 -45 -72.5 -81.5t-87.5 -56.5q-56 -23 -108 -18t-92 42q-26 24 -44.5 61t-29.5 89q-13 65 -10 132t12 126t18.5 105t9.5 69q0 19 12.5 29t24.5 9q15 0 27 -10.5t12 -29.5q0 -30 -9.5 -79t-18.5 -106t-12 -117.5t10 -114.5q18 -75 50 -104q23 -23 53.5 -25 t64.5 12t67 42.5t62 67.5q26 36 43 82.5t26.5 96t12.5 99.5t1.5 94t-6 79t-9.5 55t4 34t23 19t29 -2t20 -26z" />
<glyph unicode="&#xdb;" horiz-adv-x="691" d="M481 709q9 -11 8 -21.5t-9 -17.5t-17.5 -8t-19.5 7q-12 11 -25.5 24.5t-23.5 22.5q-3 4 -6 3.5t-6 -2.5q-17 -11 -39 -24.5t-42 -26.5q-11 -7 -22.5 -3.5t-16.5 13.5q-6 8 -5 18.5t13 18.5q27 16 54.5 33.5t48.5 29.5q24 16 44 -1q15 -14 33 -33t31 -33zM633 614 q4 -18 9 -53.5t7 -83.5t-0.5 -104t-13 -114t-31 -114t-54.5 -104q-31 -45 -72.5 -81.5t-87.5 -56.5q-56 -23 -108 -18t-92 42q-26 24 -44.5 61t-29.5 89q-13 65 -10 132t12 126t18.5 105t9.5 69q0 19 12.5 29t24.5 9q15 0 27 -10.5t12 -29.5q0 -30 -9.5 -79t-18.5 -106 t-12 -117.5t10 -114.5q18 -75 50 -104q23 -23 53.5 -25t64.5 12t67 42.5t62 67.5q26 36 43 82.5t26.5 96t12.5 99.5t1.5 94t-6 79t-9.5 55t4 34t23 19t29 -2t20 -26z" />
<glyph unicode="&#xdc;" horiz-adv-x="691" d="M633 614q4 -18 9 -53.5t7 -83.5t-0.5 -104t-13 -114t-31 -114t-54.5 -104q-31 -45 -72.5 -81.5t-87.5 -56.5q-56 -23 -108 -18t-92 42q-26 24 -44.5 61t-29.5 89q-13 65 -10 132t12 126t18.5 105t9.5 69q0 19 12.5 29t24.5 9q15 0 27 -10.5t12 -29.5q0 -30 -9.5 -79 t-18.5 -106t-12 -117.5t10 -114.5q18 -75 50 -104q23 -23 53.5 -25t64.5 12t67 42.5t62 67.5q26 36 43 82.5t26.5 96t12.5 99.5t1.5 94t-6 79t-9.5 55t4 34t23 19t29 -2t20 -26zM350 694q0 -19 -14 -33t-33 -14q-20 0 -33.5 13.5t-13.5 33.5q1 20 13.5 34.5t32.5 14.5 t34 -14.5t14 -34.5zM518 694q-1 -20 -14.5 -33t-32.5 -14q-20 0 -33.5 13.5t-13.5 33.5t13 34.5t33 14.5q19 0 33.5 -14.5t14.5 -34.5z" />
<glyph unicode="&#xdd;" horiz-adv-x="533" d="M454 756q7 -11 4.5 -21.5t-13.5 -17.5q-15 -9 -35.5 -20t-42.5 -23t-43 -22.5t-36 -17.5q-14 -6 -24 -2t-15 15q-5 10 -2.5 20.5t15.5 18.5q16 8 36.5 18.5t41.5 21t41.5 21t35.5 18.5q11 8 21 4.5t16 -13.5zM648 562q-23 -26 -47 -57t-45 -63q-33 -51 -61 -95.5 t-53.5 -87t-50 -84t-49.5 -86.5q6 -19 -3 -32t-23 -15q-8 -14 -21.5 -37.5t-28.5 -48.5t-29 -47.5t-23 -34.5q-11 -14 -26 -15t-26 7q-12 8 -16 20.5t7 28.5q25 38 51.5 83.5t49.5 86.5q-29 50 -60.5 111.5t-59.5 121t-49.5 110.5t-30.5 80q-5 13 3 23.5t21 15.5t26.5 1 t19.5 -21q11 -30 30.5 -75t43.5 -95t49.5 -101.5t49.5 -94.5q15 25 35.5 61t46 78.5t54.5 89t60 92.5q48 71 96 128q12 13 28.5 12t27.5 -9t14 -22t-11 -29z" />
<glyph unicode="&#xde;" horiz-adv-x="667" d="M382 817q-22 -43 -50 -111t-51 -148q55 -11 109.5 -21.5t100.5 -21.5q72 -20 106.5 -52t35.5 -69q1 -31 -22.5 -60.5t-71.5 -52.5q-21 -9 -49.5 -23t-60 -29t-63.5 -30t-60 -27q-17 -8 -30.5 -1t-19.5 20q-5 13 -2 26.5t20 21.5q31 14 62.5 29t61.5 29t56 26.5t46 22.5 q44 20 42 45q0 15 -17 29t-54 23q-43 11 -98 21.5t-111 21.5q-3 -6 -7.5 -26t-8.5 -46t-8 -53.5t-6 -47.5q-6 -43 -9.5 -91t-4 -97.5t3.5 -99t13 -94.5q4 -15 -4.5 -25t-22.5 -13q-15 -4 -29 2.5t-19 27.5q-19 135 -15.5 258t25.5 237.5t58.5 221t83.5 207.5q9 19 23.5 20.5 t28.5 -7.5q11 -6 17.5 -18t0.5 -25z" />
<glyph unicode="&#xdf;" horiz-adv-x="550" d="M481 68q-16 -31 -38.5 -55t-47 -42t-50 -30.5t-47.5 -20.5q-18 -7 -30.5 0.5t-17.5 20.5q-5 14 -0.5 27t21.5 21q52 23 86.5 47t56.5 66q14 26 9 45t-27 28q-21 8 -52.5 7.5t-57.5 -6.5q-14 -3 -25.5 3.5t-17.5 18.5q-7 13 -6 29t15 29q18 16 39.5 38t43.5 47t42 51 t34 50q24 41 8 62q-11 13 -37 13q-18 -1 -38 -6.5t-44 -15.5q-52 -24 -78.5 -85t-37.5 -152q-5 -51 -7 -109t-0.5 -111t5.5 -95t10 -62q15 -9 17 -27.5t-8 -30.5q-8 -10 -18.5 -13.5t-22 -1.5t-21 10.5t-14.5 23.5q-10 31 -16 78t-8 103t0 118t8 122q11 120 50 191.5 t111 106.5q34 16 64.5 22.5t55.5 7.5q31 2 53 -6t38 -24q25 -26 24 -69t-29 -88q-21 -33 -55.5 -76t-71.5 -78q29 3 54 -0.5t41 -11.5q25 -12 38.5 -30.5t17.5 -41.5t-1 -48t-18 -50z" />
<glyph unicode="&#xe0;" horiz-adv-x="614" d="M452 429q-6 -7 -16 -10t-21 5q-29 22 -60.5 46t-59.5 47q-12 9 -11 20t8 19q6 8 17 11t21 -5q31 -25 60.5 -48t57.5 -46q12 -8 11 -19.5t-7 -19.5zM667 84q10 -13 7.5 -30t-18.5 -27q-34 -19 -77.5 -34.5t-80.5 -19.5q-44 -4 -67.5 5t-40.5 35q-7 9 -12.5 27t-5.5 32 q-1 8 -7.5 9.5t-14.5 -4.5q-11 -7 -26.5 -19.5t-33 -27.5t-35.5 -31t-34 -29q-38 -29 -71 -30.5t-54 17.5q-26 23 -26 69q1 22 7 43.5t16 41.5q15 30 37 59t46.5 54.5t49.5 46t46 34.5q18 12 41 25.5t49.5 20t55.5 2.5t58 -28q13 -11 14 -24t-5 -24q-8 -14 -25.5 -18.5 t-33.5 5.5q-23 18 -50.5 13.5t-64.5 -29.5q-18 -12 -40.5 -31.5t-43.5 -42.5t-39.5 -47.5t-29.5 -47.5q-6 -12 -8 -29t6 -23q11 -9 32 9q15 13 37.5 32t46.5 38.5t47.5 37.5t41.5 29q15 9 30.5 12.5t27.5 0.5t19 -13t7 -27q-1 -20 0.5 -37.5t6.5 -30.5q6 -17 16.5 -23 t27.5 -5q13 2 30 6.5t34 10.5t33.5 12.5t28.5 12.5q15 7 26 4t19 -12z" />
<glyph unicode="&#xe1;" horiz-adv-x="614" d="M484 541q7 -11 4.5 -21.5t-13.5 -17.5q-15 -9 -35.5 -20t-42.5 -23t-43 -22.5t-36 -17.5q-14 -6 -24 -2t-15 15q-5 10 -2.5 20.5t15.5 18.5q16 8 36.5 18.5t41.5 21t41.5 21t35.5 18.5q11 8 21 4.5t16 -13.5zM667 84q10 -13 7.5 -30t-18.5 -27q-34 -19 -77.5 -34.5 t-80.5 -19.5q-44 -4 -67.5 5t-40.5 35q-7 9 -12.5 27t-5.5 32q-1 8 -7.5 9.5t-14.5 -4.5q-11 -7 -26.5 -19.5t-33 -27.5t-35.5 -31t-34 -29q-38 -29 -71 -30.5t-54 17.5q-26 23 -26 69q1 22 7 43.5t16 41.5q15 30 37 59t46.5 54.5t49.5 46t46 34.5q18 12 41 25.5t49.5 20 t55.5 2.5t58 -28q13 -11 14 -24t-5 -24q-8 -14 -25.5 -18.5t-33.5 5.5q-23 18 -50.5 13.5t-64.5 -29.5q-18 -12 -40.5 -31.5t-43.5 -42.5t-39.5 -47.5t-29.5 -47.5q-6 -12 -8 -29t6 -23q11 -9 32 9q15 13 37.5 32t46.5 38.5t47.5 37.5t41.5 29q15 9 30.5 12.5t27.5 0.5 t19 -13t7 -27q-1 -20 0.5 -37.5t6.5 -30.5q6 -17 16.5 -23t27.5 -5q13 2 30 6.5t34 10.5t33.5 12.5t28.5 12.5q15 7 26 4t19 -12z" />
<glyph unicode="&#xe2;" horiz-adv-x="614" d="M486 467q9 -11 8 -21.5t-9 -17.5t-17.5 -8t-19.5 7q-12 11 -25.5 24.5t-23.5 22.5q-3 4 -6 3.5t-6 -2.5q-17 -11 -39 -24.5t-42 -26.5q-11 -7 -22.5 -3.5t-16.5 13.5q-6 8 -5 18.5t13 18.5q27 16 54.5 33.5t48.5 29.5q24 16 44 -1q15 -14 33 -33t31 -33zM667 84 q10 -13 7.5 -30t-18.5 -27q-34 -19 -77.5 -34.5t-80.5 -19.5q-44 -4 -67.5 5t-40.5 35q-7 9 -12.5 27t-5.5 32q-1 8 -7.5 9.5t-14.5 -4.5q-11 -7 -26.5 -19.5t-33 -27.5t-35.5 -31t-34 -29q-38 -29 -71 -30.5t-54 17.5q-26 23 -26 69q1 22 7 43.5t16 41.5q15 30 37 59 t46.5 54.5t49.5 46t46 34.5q18 12 41 25.5t49.5 20t55.5 2.5t58 -28q13 -11 14 -24t-5 -24q-8 -14 -25.5 -18.5t-33.5 5.5q-23 18 -50.5 13.5t-64.5 -29.5q-18 -12 -40.5 -31.5t-43.5 -42.5t-39.5 -47.5t-29.5 -47.5q-6 -12 -8 -29t6 -23q11 -9 32 9q15 13 37.5 32 t46.5 38.5t47.5 37.5t41.5 29q15 9 30.5 12.5t27.5 0.5t19 -13t7 -27q-1 -20 0.5 -37.5t6.5 -30.5q6 -17 16.5 -23t27.5 -5q13 2 30 6.5t34 10.5t33.5 12.5t28.5 12.5q15 7 26 4t19 -12z" />
<glyph unicode="&#xe3;" horiz-adv-x="614" d="M506 480q-9 -35 -27 -49.5t-40 -13.5q-37 0 -76 33q-18 15 -33 15q-20 0 -40 -32q-7 -12 -18.5 -14t-21.5 4q-8 4 -12.5 13.5t3.5 22.5q16 33 39.5 48t46.5 15q34 0 68 -26q29 -21 40 -21q12 0 18 20q5 14 16 17.5t20 0.5q10 -4 15.5 -13t1.5 -20zM667 84q10 -13 7.5 -30 t-18.5 -27q-34 -19 -77.5 -34.5t-80.5 -19.5q-44 -4 -67.5 5t-40.5 35q-7 9 -12.5 27t-5.5 32q-1 8 -7.5 9.5t-14.5 -4.5q-11 -7 -26.5 -19.5t-33 -27.5t-35.5 -31t-34 -29q-38 -29 -71 -30.5t-54 17.5q-26 23 -26 69q1 22 7 43.5t16 41.5q15 30 37 59t46.5 54.5t49.5 46 t46 34.5q18 12 41 25.5t49.5 20t55.5 2.5t58 -28q13 -11 14 -24t-5 -24q-8 -14 -25.5 -18.5t-33.5 5.5q-23 18 -50.5 13.5t-64.5 -29.5q-18 -12 -40.5 -31.5t-43.5 -42.5t-39.5 -47.5t-29.5 -47.5q-6 -12 -8 -29t6 -23q11 -9 32 9q15 13 37.5 32t46.5 38.5t47.5 37.5 t41.5 29q15 9 30.5 12.5t27.5 0.5t19 -13t7 -27q-1 -20 0.5 -37.5t6.5 -30.5q6 -17 16.5 -23t27.5 -5q13 2 30 6.5t34 10.5t33.5 12.5t28.5 12.5q15 7 26 4t19 -12z" />
<glyph unicode="&#xe4;" horiz-adv-x="614" d="M667 84q10 -13 7.5 -30t-18.5 -27q-34 -19 -77.5 -34.5t-80.5 -19.5q-44 -4 -67.5 5t-40.5 35q-7 9 -12.5 27t-5.5 32q-1 8 -7.5 9.5t-14.5 -4.5q-11 -7 -26.5 -19.5t-33 -27.5t-35.5 -31t-34 -29q-38 -29 -71 -30.5t-54 17.5q-26 23 -26 69q1 22 7 43.5t16 41.5 q15 30 37 59t46.5 54.5t49.5 46t46 34.5q18 12 41 25.5t49.5 20t55.5 2.5t58 -28q13 -11 14 -24t-5 -24q-8 -14 -25.5 -18.5t-33.5 5.5q-23 18 -50.5 13.5t-64.5 -29.5q-18 -12 -40.5 -31.5t-43.5 -42.5t-39.5 -47.5t-29.5 -47.5q-6 -12 -8 -29t6 -23q11 -9 32 9 q15 13 37.5 32t46.5 38.5t47.5 37.5t41.5 29q15 9 30.5 12.5t27.5 0.5t19 -13t7 -27q-1 -20 0.5 -37.5t6.5 -30.5q6 -17 16.5 -23t27.5 -5q13 2 30 6.5t34 10.5t33.5 12.5t28.5 12.5q15 7 26 4t19 -12zM354 470q0 -19 -14 -33t-33 -14q-20 0 -33.5 13.5t-13.5 33.5 q1 20 13.5 34.5t32.5 14.5t34 -14.5t14 -34.5zM522 470q-1 -20 -14.5 -33t-32.5 -14q-20 0 -33.5 13.5t-13.5 33.5t13 34.5t33 14.5q19 0 33.5 -14.5t14.5 -34.5z" />
<glyph unicode="&#xe5;" horiz-adv-x="614" d="M431 430q12 10 17.5 24t5.5 29t-5.5 29.5t-17.5 24.5q-10 11 -24.5 16.5t-29.5 5.5t-29 -5.5t-24 -16.5q-11 -10 -16 -24.5t-5 -29.5t5 -29t16 -24q10 -11 24 -16t29 -5t29.5 5t24.5 16zM667 84q10 -13 7.5 -30t-18.5 -27q-34 -19 -77.5 -34.5t-80.5 -19.5 q-44 -4 -67.5 5t-40.5 35q-7 9 -12.5 27t-5.5 32q-1 8 -7.5 9.5t-14.5 -4.5q-11 -7 -26.5 -19.5t-33 -27.5t-35.5 -31t-34 -29q-38 -29 -71 -30.5t-54 17.5q-26 23 -26 69q1 22 7 43.5t16 41.5q15 30 37 59t46.5 54.5t49.5 46t46 34.5q18 12 41 25.5t49.5 20t55.5 2.5 t58 -28q13 -11 14 -24t-5 -24q-8 -14 -25.5 -18.5t-33.5 5.5q-23 18 -50.5 13.5t-64.5 -29.5q-18 -12 -40.5 -31.5t-43.5 -42.5t-39.5 -47.5t-29.5 -47.5q-6 -12 -8 -29t6 -23q11 -9 32 9q15 13 37.5 32t46.5 38.5t47.5 37.5t41.5 29q15 9 30.5 12.5t27.5 0.5t19 -13t7 -27 q-1 -20 0.5 -37.5t6.5 -30.5q6 -17 16.5 -23t27.5 -5q13 2 30 6.5t34 10.5t33.5 12.5t28.5 12.5q15 7 26 4t19 -12zM444 417q-28 -26 -67 -26q-38 0 -66 26q-26 28 -26 66q0 39 26 67q28 26 66 26q39 0 67 -26q26 -28 26 -67q0 -38 -26 -66z" />
<glyph unicode="&#xe6;" horiz-adv-x="776" d="M430 270q-14 -2 -25 6t-18 11q-18 8 -41.5 -0.5t-57.5 -31.5q-12 -8 -29 -25.5t-34 -41.5t-33.5 -52t-26.5 -58q-3 -8 -5.5 -15.5t-4.5 -15.5q-3 -14 3.5 -19t19.5 3q21 15 47.5 38.5t54 50.5t55 56t51.5 54q15 15 29 15l7.5 12.5zM608 318q-6 5 -20.5 0.5t-20.5 -8.5 q-10 -6 -16.5 -10.5t-15.5 -14.5q-20 -20 -41.5 -52t-35.5 -65q22 6 46 16.5t44.5 24t36 30t20.5 33.5q3 10 5.5 25.5t-2.5 20.5zM813 83q8 -14 3.5 -31.5t-22.5 -23.5q-23 -8 -58.5 -23t-79 -27.5t-91.5 -19.5t-94 1q-38 6 -61 22t-35 47q-5 12 -7.5 33.5t-0.5 38.5 q-30 -31 -65.5 -64t-81.5 -70q-26 -21 -53 -26.5t-48.5 3t-33.5 30t-8 53.5q3 23 8 46t12 38q12 28 28 57.5t35.5 57.5t42 52t48.5 42q18 12 38 23.5t41.5 18t43.5 6.5t45 -10q14 -7 28 -16.5t16 -26.5q7 10 16.5 20t19.5 18.5t19.5 15t15.5 9.5q11 5 25 10t29.5 7t31 0 t29.5 -11q15 -11 23 -25.5t10.5 -31t1 -34t-5.5 -33.5q-9 -33 -33.5 -62.5t-57.5 -51.5t-71 -36.5t-74 -17.5q0 -29 11 -40.5t31 -16.5q30 -7 70 -1t80.5 17.5t77 25t61.5 21.5q14 5 24.5 0.5t15.5 -14.5z" />
<glyph unicode="&#xe7;" horiz-adv-x="579" d="M306 -156q-13 -24 -35 -38t-48 -16q-14 -1 -21.5 5.5t-9 15.5t3.5 18t17 12q14 4 24.5 9t15.5 11q5 5 4 10.5t-12 8.5q-29 8 -29 38q0 19 6 42q4 16 14 21.5t19.5 3.5t16 -9.5t3.5 -16.5q-2 -8 -4 -15t-2 -11q0 -6 2 -8.5t10 -4.5q16 -5 23.5 -14.5t9 -20.5t-1 -22 t-6.5 -19zM596 107q8 -13 6 -29t-20 -26q-44 -23 -92.5 -40.5t-97 -29t-94 -16.5t-82.5 -2q-48 4 -80.5 19t-48 39t-13 56t24.5 70q15 26 36 50.5t47.5 46t56.5 39t63 29.5q12 4 29 5t29 -1q23 -3 33.5 -14.5t11.5 -25.5q0 -14 -9.5 -26.5t-26.5 -15.5q-12 -3 -26 -1.5 t-28 6.5q-18 -5 -39.5 -17t-41.5 -29.5t-37.5 -37.5t-27.5 -40q-8 -15 -8.5 -29.5t8.5 -25.5t26.5 -17.5t45.5 -6.5q50 0 98.5 9t90 22t72 27t44.5 22q15 8 28.5 4.5t21.5 -14.5z" />
<glyph unicode="&#xe8;" horiz-adv-x="476" d="M371 465q-6 -7 -16 -10t-21 5q-29 22 -60.5 46t-59.5 47q-12 9 -11 20t8 19q6 8 17 11t21 -5q31 -25 60.5 -48t57.5 -46q12 -8 11 -19.5t-7 -19.5zM308 275q7 31 -4 41q-8 5 -20 3t-21 -7q-13 -8 -31 -26q-21 -21 -40.5 -51.5t-29.5 -62.5q22 4 46 14t45 24t35.5 30.5 t19.5 34.5zM515 79q7 -13 2.5 -29t-23.5 -22q-23 -8 -59 -22.5t-79 -27.5t-91 -19.5t-94 1.5q-23 4 -41 13t-30 22q-46 44 -31 125q6 38 19.5 71t29.5 60t32.5 48t30.5 35t28 25.5t25 16.5q12 6 26.5 10.5t30 6t30.5 -0.5t28 -10q15 -9 23 -23t11 -30.5t1.5 -35t-5.5 -35.5 q-9 -33 -33.5 -61.5t-57.5 -50.5t-71 -36.5t-73 -17.5q-3 -25 8 -39.5t33 -18.5q34 -8 74.5 -1.5t80 18.5t75 26t58.5 21q16 5 26.5 -1.5t15.5 -17.5z" />
<glyph unicode="&#xe9;" horiz-adv-x="476" d="M439 589q7 -11 4.5 -21.5t-13.5 -17.5q-15 -9 -35.5 -20t-42.5 -23t-43 -22.5t-36 -17.5q-14 -6 -24 -2t-15 15q-5 10 -2.5 20.5t15.5 18.5q16 8 36.5 18.5t41.5 21t41.5 21t35.5 18.5q11 8 21 4.5t16 -13.5zM308 275q7 31 -4 41q-8 5 -20 3t-21 -7q-13 -8 -31 -26 q-21 -21 -40.5 -51.5t-29.5 -62.5q22 4 46 14t45 24t35.5 30.5t19.5 34.5zM515 79q7 -13 2.5 -29t-23.5 -22q-23 -8 -59 -22.5t-79 -27.5t-91 -19.5t-94 1.5q-23 4 -41 13t-30 22q-46 44 -31 125q6 38 19.5 71t29.5 60t32.5 48t30.5 35t28 25.5t25 16.5q12 6 26.5 10.5t30 6 t30.5 -0.5t28 -10q15 -9 23 -23t11 -30.5t1.5 -35t-5.5 -35.5q-9 -33 -33.5 -61.5t-57.5 -50.5t-71 -36.5t-73 -17.5q-3 -25 8 -39.5t33 -18.5q34 -8 74.5 -1.5t80 18.5t75 26t58.5 21q16 5 26.5 -1.5t15.5 -17.5z" />
<glyph unicode="&#xea;" horiz-adv-x="476" d="M405 499q9 -11 8 -21.5t-9 -17.5t-17.5 -8t-19.5 7q-12 11 -25.5 24.5t-23.5 22.5q-3 4 -6 3.5t-6 -2.5q-17 -11 -39 -24.5t-42 -26.5q-11 -7 -22.5 -3.5t-16.5 13.5q-6 8 -5 18.5t13 18.5q27 16 54.5 33.5t48.5 29.5q24 16 44 -1q15 -14 33 -33t31 -33zM308 275 q7 31 -4 41q-8 5 -20 3t-21 -7q-13 -8 -31 -26q-21 -21 -40.5 -51.5t-29.5 -62.5q22 4 46 14t45 24t35.5 30.5t19.5 34.5zM515 79q7 -13 2.5 -29t-23.5 -22q-23 -8 -59 -22.5t-79 -27.5t-91 -19.5t-94 1.5q-23 4 -41 13t-30 22q-46 44 -31 125q6 38 19.5 71t29.5 60t32.5 48 t30.5 35t28 25.5t25 16.5q12 6 26.5 10.5t30 6t30.5 -0.5t28 -10q15 -9 23 -23t11 -30.5t1.5 -35t-5.5 -35.5q-9 -33 -33.5 -61.5t-57.5 -50.5t-71 -36.5t-73 -17.5q-3 -25 8 -39.5t33 -18.5q34 -8 74.5 -1.5t80 18.5t75 26t58.5 21q16 5 26.5 -1.5t15.5 -17.5z" />
<glyph unicode="&#xeb;" horiz-adv-x="476" d="M308 275q7 31 -4 41q-8 5 -20 3t-21 -7q-13 -8 -31 -26q-21 -21 -40.5 -51.5t-29.5 -62.5q22 4 46 14t45 24t35.5 30.5t19.5 34.5zM515 79q7 -13 2.5 -29t-23.5 -22q-23 -8 -59 -22.5t-79 -27.5t-91 -19.5t-94 1.5q-23 4 -41 13t-30 22q-46 44 -31 125q6 38 19.5 71 t29.5 60t32.5 48t30.5 35t28 25.5t25 16.5q12 6 26.5 10.5t30 6t30.5 -0.5t28 -10q15 -9 23 -23t11 -30.5t1.5 -35t-5.5 -35.5q-9 -33 -33.5 -61.5t-57.5 -50.5t-71 -36.5t-73 -17.5q-3 -25 8 -39.5t33 -18.5q34 -8 74.5 -1.5t80 18.5t75 26t58.5 21q16 5 26.5 -1.5 t15.5 -17.5zM250 520q0 -19 -14 -33t-33 -14q-20 0 -33.5 13.5t-13.5 33.5q1 20 13.5 34.5t32.5 14.5t34 -14.5t14 -34.5zM418 520q-1 -20 -14.5 -33t-32.5 -14q-20 0 -33.5 13.5t-13.5 33.5t13 34.5t33 14.5q19 0 33.5 -14.5t14.5 -34.5z" />
<glyph unicode="&#xec;" horiz-adv-x="369" d="M260 366q-6 -7 -16 -10t-21 5q-29 22 -60.5 46t-59.5 47q-12 9 -11 20t8 19q6 8 17 11t21 -5q31 -25 60.5 -48t57.5 -46q12 -8 11 -19.5t-7 -19.5zM488 66q1 -12 -7.5 -24t-28.5 -14q-14 -2 -38.5 -9.5t-52 -17.5t-56 -19.5t-49.5 -14.5q-63 -15 -98.5 0.5t-51.5 73.5 q-5 19 -5.5 44.5t1.5 44.5q2 26 7.5 51t12.5 45q-6 2 -6 8t2 12q4 9 12 22.5t16 21.5q10 8 22.5 9t23.5 -3q14 -5 21.5 -15.5t0.5 -23.5q-11 -22 -22.5 -58t-13.5 -69q-1 -20 0 -36t4 -27q5 -20 17.5 -26.5t39.5 -1.5q17 3 44 13t56.5 21.5t58 20.5t48.5 9q20 1 30.5 -11 t11.5 -26z" />
<glyph unicode="&#xed;" horiz-adv-x="369" d="M304 508q7 -11 4.5 -21.5t-13.5 -17.5q-15 -9 -35.5 -20t-42.5 -23t-43 -22.5t-36 -17.5q-14 -6 -24 -2t-15 15q-5 10 -2.5 20.5t15.5 18.5q16 8 36.5 18.5t41.5 21t41.5 21t35.5 18.5q11 8 21 4.5t16 -13.5zM488 66q1 -12 -7.5 -24t-28.5 -14q-14 -2 -38.5 -9.5 t-52 -17.5t-56 -19.5t-49.5 -14.5q-63 -15 -98.5 0.5t-51.5 73.5q-5 19 -5.5 44.5t1.5 44.5q2 26 7.5 51t12.5 45q-6 2 -6 8t2 12q4 9 12 22.5t16 21.5q10 8 22.5 9t23.5 -3q14 -5 21.5 -15.5t0.5 -23.5q-11 -22 -22.5 -58t-13.5 -69q-1 -20 0 -36t4 -27q5 -20 17.5 -26.5 t39.5 -1.5q17 3 44 13t56.5 21.5t58 20.5t48.5 9q20 1 30.5 -11t11.5 -26z" />
<glyph unicode="&#xee;" horiz-adv-x="369" d="M300 418q9 -11 8 -21.5t-9 -17.5t-17.5 -8t-19.5 7q-12 11 -25.5 24.5t-23.5 22.5q-3 4 -6 3.5t-6 -2.5q-17 -11 -39 -24.5t-42 -26.5q-11 -7 -22.5 -3.5t-16.5 13.5q-6 8 -5 18.5t13 18.5q27 16 54.5 33.5t48.5 29.5q24 16 44 -1q15 -14 33 -33t31 -33zM488 66 q1 -12 -7.5 -24t-28.5 -14q-14 -2 -38.5 -9.5t-52 -17.5t-56 -19.5t-49.5 -14.5q-63 -15 -98.5 0.5t-51.5 73.5q-5 19 -5.5 44.5t1.5 44.5q2 26 7.5 51t12.5 45q-6 2 -6 8t2 12q4 9 12 22.5t16 21.5q10 8 22.5 9t23.5 -3q14 -5 21.5 -15.5t0.5 -23.5q-11 -22 -22.5 -58 t-13.5 -69q-1 -20 0 -36t4 -27q5 -20 17.5 -26.5t39.5 -1.5q17 3 44 13t56.5 21.5t58 20.5t48.5 9q20 1 30.5 -11t11.5 -26z" />
<glyph unicode="&#xef;" horiz-adv-x="369" d="M488 66q1 -12 -7.5 -24t-28.5 -14q-14 -2 -38.5 -9.5t-52 -17.5t-56 -19.5t-49.5 -14.5q-63 -15 -98.5 0.5t-51.5 73.5q-5 19 -5.5 44.5t1.5 44.5q2 26 7.5 51t12.5 45q-6 2 -6 8t2 12q4 9 12 22.5t16 21.5q10 8 22.5 9t23.5 -3q14 -5 21.5 -15.5t0.5 -23.5 q-11 -22 -22.5 -58t-13.5 -69q-1 -20 0 -36t4 -27q5 -20 17.5 -26.5t39.5 -1.5q17 3 44 13t56.5 21.5t58 20.5t48.5 9q20 1 30.5 -11t11.5 -26zM148 438q0 -19 -14 -33t-33 -14q-20 0 -33.5 13.5t-13.5 33.5q1 20 13.5 34.5t32.5 14.5t34 -14.5t14 -34.5zM316 438 q-1 -20 -14.5 -33t-32.5 -14q-20 0 -33.5 13.5t-13.5 33.5t13 34.5t33 14.5q19 0 33.5 -14.5t14.5 -34.5z" />
<glyph unicode="&#xf0;" horiz-adv-x="622" d="M493 179q-35 16 -77.5 27t-86 15.5t-85 1.5t-74.5 -14q-26 -9 -35 -21t-9 -26t14.5 -37t34.5 -39q48 -37 102 -55t97 -18q38 0 62.5 15t41.5 40q11 17 15.5 46.5t-0.5 64.5zM535 608q-14 -34 -41 -60t-59 -49q41 -66 73 -135.5t48 -135.5l12 -57q5 -39 -2 -77.5 t-24 -66.5q-24 -37 -65.5 -62.5t-98.5 -25.5q-61 0 -128 23t-122 67q-35 28 -59 64t-25 74q-1 83 99 113q75 22 159.5 18.5t164.5 -30.5q-16 42 -40.5 90.5t-53.5 97.5q-28 -20 -52 -40.5t-38 -46.5q-9 -15 -17.5 -16t-19.5 6q-23 10 -14 38q8 24 16 35.5t20 20t30.5 18 t46.5 29.5q-21 33 -43 64t-43 57q-9 11 -7 26.5t10 22.5q13 11 27 11q15 0 28 -13q22 -28 44 -58t44 -63q25 22 56 53q4 17 10 31t15 22q14 14 24 16t22 -3q5 -3 9 -9t5.5 -14t-1 -17t-10.5 -18z" />
<glyph unicode="&#xf1;" horiz-adv-x="682" d="M473 417q-9 -35 -27 -49.5t-40 -13.5q-37 0 -76 33q-18 15 -33 15q-20 0 -40 -32q-7 -12 -18.5 -14t-21.5 4q-8 4 -12.5 13.5t3.5 22.5q16 33 39.5 48t46.5 15q34 0 68 -26q29 -21 40 -21q12 0 18 20q5 14 16 17.5t20 0.5q10 -4 15.5 -13t1.5 -20zM811 77q1 -11 -5 -21.5 t-19 -15.5q-6 -2 -12.5 -3.5t-14.5 0.5q-20 -8 -48 -18.5t-59 -24.5q-54 -23 -102.5 -11.5t-73.5 64.5q-17 35 -22 68.5t-8 55.5q-3 14 -17 16q-9 2 -20.5 -2t-24.5 -12q-10 -7 -21.5 -17.5t-24.5 -22t-26.5 -23.5t-26.5 -21q-12 -9 -26.5 -23t-28 -29t-24 -29.5 t-15.5 -24.5q-11 -20 -26.5 -23t-29.5 3t-18.5 16t-4.5 22v55v55t-0.5 49t-0.5 39q-15 4 -15 18q2 9 7.5 22.5t12.5 21.5q5 7 14 9.5t20 1.5q12 -1 22 -7.5t12 -19.5q1 -14 2 -34t1 -42v-42t-1 -37q13 19 33 36.5t38 33.5q21 20 43.5 40t42.5 34q22 17 49.5 27t51.5 9 q29 1 50 -16t26 -52q5 -39 11 -69t15 -50q11 -24 33 -26.5t44 6.5q32 13 70 28.5t69 22.5q23 5 35 -6.5t13 -30.5z" />
<glyph unicode="&#xf2;" horiz-adv-x="572" d="M395 372q-6 -7 -16 -10t-21 5q-29 22 -60.5 46t-59.5 47q-12 9 -11 20t8 19q6 8 17 11t21 -5q31 -25 60.5 -48t57.5 -46q12 -8 11 -19.5t-7 -19.5zM420 92q19 23 11.5 48t-30.5 41q-15 0 -35.5 -0.5t-38.5 0.5q-28 0 -44.5 9.5t-11.5 24.5q-5 3 -10.5 1t-13.5 -5 q-21 -14 -44 -45t-29 -70q-9 -48 6 -70q16 -24 53 -24q29 -1 52.5 3.5t41.5 12.5q26 11 50 31t43 43zM553 214q0 -8 -4 -16t-12 -12q-17 -5 -45 -5q6 -8 11.5 -22t6 -32t-6 -39t-24.5 -42q-55 -65 -120 -94q-28 -13 -59 -18t-66 -6q-91 -2 -125 56q-27 47 -10 127 q6 30 18.5 57.5t30.5 50.5t40 41t46 30q22 11 46 10.5t44 -19.5q9 3 20 3.5t19 -1.5q17 -2 36 -10.5t31 -19.5h83q18 0 29.5 -12t10.5 -27z" />
<glyph unicode="&#xf3;" horiz-adv-x="572" d="M481 496q7 -11 4.5 -21.5t-13.5 -17.5q-15 -9 -35.5 -20t-42.5 -23t-43 -22.5t-36 -17.5q-14 -6 -24 -2t-15 15q-5 10 -2.5 20.5t15.5 18.5q16 8 36.5 18.5t41.5 21t41.5 21t35.5 18.5q11 8 21 4.5t16 -13.5zM420 92q19 23 11.5 48t-30.5 41q-15 0 -35.5 -0.5t-38.5 0.5 q-28 0 -44.5 9.5t-11.5 24.5q-5 3 -10.5 1t-13.5 -5q-21 -14 -44 -45t-29 -70q-9 -48 6 -70q16 -24 53 -24q29 -1 52.5 3.5t41.5 12.5q26 11 50 31t43 43zM553 214q0 -8 -4 -16t-12 -12q-17 -5 -45 -5q6 -8 11.5 -22t6 -32t-6 -39t-24.5 -42q-55 -65 -120 -94 q-28 -13 -59 -18t-66 -6q-91 -2 -125 56q-27 47 -10 127q6 30 18.5 57.5t30.5 50.5t40 41t46 30q22 11 46 10.5t44 -19.5q9 3 20 3.5t19 -1.5q17 -2 36 -10.5t31 -19.5h83q18 0 29.5 -12t10.5 -27z" />
<glyph unicode="&#xf4;" horiz-adv-x="572" d="M444 412q9 -11 8 -21.5t-9 -17.5t-17.5 -8t-19.5 7q-12 11 -25.5 24.5t-23.5 22.5q-3 4 -6 3.5t-6 -2.5q-17 -11 -39 -24.5t-42 -26.5q-11 -7 -22.5 -3.5t-16.5 13.5q-6 8 -5 18.5t13 18.5q27 16 54.5 33.5t48.5 29.5q24 16 44 -1q15 -14 33 -33t31 -33zM420 92 q19 23 11.5 48t-30.5 41q-15 0 -35.5 -0.5t-38.5 0.5q-28 0 -44.5 9.5t-11.5 24.5q-5 3 -10.5 1t-13.5 -5q-21 -14 -44 -45t-29 -70q-9 -48 6 -70q16 -24 53 -24q29 -1 52.5 3.5t41.5 12.5q26 11 50 31t43 43zM553 214q0 -8 -4 -16t-12 -12q-17 -5 -45 -5q6 -8 11.5 -22 t6 -32t-6 -39t-24.5 -42q-55 -65 -120 -94q-28 -13 -59 -18t-66 -6q-91 -2 -125 56q-27 47 -10 127q6 30 18.5 57.5t30.5 50.5t40 41t46 30q22 11 46 10.5t44 -19.5q9 3 20 3.5t19 -1.5q17 -2 36 -10.5t31 -19.5h83q18 0 29.5 -12t10.5 -27z" />
<glyph unicode="&#xf5;" horiz-adv-x="572" d="M470 438q-9 -35 -27 -49.5t-40 -13.5q-37 0 -76 33q-18 15 -33 15q-20 0 -40 -32q-7 -12 -18.5 -14t-21.5 4q-8 4 -12.5 13.5t3.5 22.5q16 33 39.5 48t46.5 15q34 0 68 -26q29 -21 40 -21q12 0 18 20q5 14 16 17.5t20 0.5q10 -4 15.5 -13t1.5 -20zM420 92q19 23 11.5 48 t-30.5 41q-15 0 -35.5 -0.5t-38.5 0.5q-28 0 -44.5 9.5t-11.5 24.5q-5 3 -10.5 1t-13.5 -5q-21 -14 -44 -45t-29 -70q-9 -48 6 -70q16 -24 53 -24q29 -1 52.5 3.5t41.5 12.5q26 11 50 31t43 43zM553 214q0 -8 -4 -16t-12 -12q-17 -5 -45 -5q6 -8 11.5 -22t6 -32t-6 -39 t-24.5 -42q-55 -65 -120 -94q-28 -13 -59 -18t-66 -6q-91 -2 -125 56q-27 47 -10 127q6 30 18.5 57.5t30.5 50.5t40 41t46 30q22 11 46 10.5t44 -19.5q9 3 20 3.5t19 -1.5q17 -2 36 -10.5t31 -19.5h83q18 0 29.5 -12t10.5 -27z" />
<glyph unicode="&#xf6;" horiz-adv-x="572" d="M420 92q19 23 11.5 48t-30.5 41q-15 0 -35.5 -0.5t-38.5 0.5q-28 0 -44.5 9.5t-11.5 24.5q-5 3 -10.5 1t-13.5 -5q-21 -14 -44 -45t-29 -70q-9 -48 6 -70q16 -24 53 -24q29 -1 52.5 3.5t41.5 12.5q26 11 50 31t43 43zM553 214q0 -8 -4 -16t-12 -12q-17 -5 -45 -5 q6 -8 11.5 -22t6 -32t-6 -39t-24.5 -42q-55 -65 -120 -94q-28 -13 -59 -18t-66 -6q-91 -2 -125 56q-27 47 -10 127q6 30 18.5 57.5t30.5 50.5t40 41t46 30q22 11 46 10.5t44 -19.5q9 3 20 3.5t19 -1.5q17 -2 36 -10.5t31 -19.5h83q18 0 29.5 -12t10.5 -27zM306 422 q0 -19 -14 -33t-33 -14q-20 0 -33.5 13.5t-13.5 33.5q1 20 13.5 34.5t32.5 14.5t34 -14.5t14 -34.5zM474 422q-1 -20 -14.5 -33t-32.5 -14q-20 0 -33.5 13.5t-13.5 33.5t13 34.5t33 14.5q19 0 33.5 -14.5t14.5 -34.5z" />
<glyph unicode="&#xf7;" horiz-adv-x="398" d="M230 102q-17 -11 -36.5 -10t-33.5 16q-15 16 -14 39.5t21 37.5q13 11 31 11t32 -11q10 -8 15.5 -19t5.5 -23t-5.5 -23t-15.5 -18zM235 446q10 -8 15 -19.5t5 -23.5t-5 -23t-16 -18q-17 -11 -36.5 -10t-33.5 16q-14 16 -13.5 40t20.5 38q14 10 32 10q19 0 32 -10zM355 266 q1 -10 -6 -19t-22 -11q-21 -2 -54 -2t-66 1t-60.5 1.5t-37.5 -1.5q-5 0 -11 -4.5t-11 -7.5q-8 -5 -17 -4t-16 7q-14 10 -11 30q3 14 13.5 24t24.5 13q16 4 49 3.5t70 -2t71 -2.5t54 1q14 2 22 -7t8 -20z" />
<glyph unicode="&#xf8;" horiz-adv-x="572" d="M172 26q0 -1 2 -3q26 36 57.5 75.5t64.5 84.5q-18 3 -28 11.5t-5 20.5q-5 3 -10.5 1t-13.5 -5q-21 -14 -44 -45t-29 -70q-9 -48 6 -70zM412 92q19 23 11.5 48t-30.5 41q-5 0 -10.5 -0.5t-10.5 -0.5q-32 -45 -67.5 -90.5t-67.5 -87.5q25 0 45 4.5t37 11.5q26 11 50 31 t43 43zM478 368q-3 -22 -17.5 -51t-37.5 -64h82q18 0 29.5 -12t10.5 -27q0 -8 -4 -16t-12 -12q-17 -5 -45 -5q6 -8 11.5 -22t6 -32t-6 -39t-24.5 -42q-55 -65 -120 -94q-28 -13 -59 -18t-66 -6q-21 0 -39 3q-16 -24 -27 -44.5t-15 -35.5q-5 -17 -13 -19.5t-21 1.5 q-25 5 -22 34q2 18 11.5 40.5t25.5 48.5q-8 6 -14 13t-11 15q-27 47 -10 127q6 30 18.5 57.5t30.5 50.5t40 41t46 30q22 11 46 10.5t44 -19.5q9 3 20 3.5t19 -1.5l12 -3q11 16 20.5 31.5t20.5 31.5q0 17 2.5 31.5t9.5 25.5q10 17 19.5 21t22.5 2q11 -2 15 -17t1 -38z" />
<glyph unicode="&#xf9;" d="M404 330q-6 -7 -16 -10t-21 5q-29 22 -60.5 46t-59.5 47q-12 9 -11 20t8 19q6 8 17 11t21 -5q31 -25 60.5 -48t57.5 -46q12 -8 11 -19.5t-7 -19.5zM730 77q6 -12 3.5 -26.5t-18.5 -24.5q-23 -14 -57 -26t-72 -19q-34 -5 -69 5t-53 38q-8 14 -12.5 29.5t-6.5 38.5 q-20 -26 -49 -54.5t-55 -45.5q-41 -27 -80 -35.5t-73 -0.5q-29 7 -49.5 26t-31.5 49q-9 27 -10.5 61t1.5 68t9.5 63t12.5 46q6 16 18 23t25 7q15 0 26.5 -11.5t4.5 -31.5q-7 -22 -12 -49t-8 -53.5t-2 -50.5t6 -40q7 -25 32 -33q17 -5 40.5 0t47.5 22q59 42 97 94t55 100 q6 14 19 18.5t27 2.5q14 -4 23 -14.5t5 -25.5q-11 -44 -12 -80t8 -61q8 -20 23 -26t34 -4q29 3 56.5 13.5t47.5 21.5q17 10 30 5t19 -19z" />
<glyph unicode="&#xfa;" d="M457 484q7 -11 4.5 -21.5t-13.5 -17.5q-15 -9 -35.5 -20t-42.5 -23t-43 -22.5t-36 -17.5q-14 -6 -24 -2t-15 15q-5 10 -2.5 20.5t15.5 18.5q16 8 36.5 18.5t41.5 21t41.5 21t35.5 18.5q11 8 21 4.5t16 -13.5zM730 77q6 -12 3.5 -26.5t-18.5 -24.5q-23 -14 -57 -26 t-72 -19q-34 -5 -69 5t-53 38q-8 14 -12.5 29.5t-6.5 38.5q-20 -26 -49 -54.5t-55 -45.5q-41 -27 -80 -35.5t-73 -0.5q-29 7 -49.5 26t-31.5 49q-9 27 -10.5 61t1.5 68t9.5 63t12.5 46q6 16 18 23t25 7q15 0 26.5 -11.5t4.5 -31.5q-7 -22 -12 -49t-8 -53.5t-2 -50.5t6 -40 q7 -25 32 -33q17 -5 40.5 0t47.5 22q59 42 97 94t55 100q6 14 19 18.5t27 2.5q14 -4 23 -14.5t5 -25.5q-11 -44 -12 -80t8 -61q8 -20 23 -26t34 -4q29 3 56.5 13.5t47.5 21.5q17 10 30 5t19 -19z" />
<glyph unicode="&#xfb;" d="M459 403q9 -11 8 -21.5t-9 -17.5t-17.5 -8t-19.5 7q-12 11 -25.5 24.5t-23.5 22.5q-3 4 -6 3.5t-6 -2.5q-17 -11 -39 -24.5t-42 -26.5q-11 -7 -22.5 -3.5t-16.5 13.5q-6 8 -5 18.5t13 18.5q27 16 54.5 33.5t48.5 29.5q24 16 44 -1q15 -14 33 -33t31 -33zM730 77 q6 -12 3.5 -26.5t-18.5 -24.5q-23 -14 -57 -26t-72 -19q-34 -5 -69 5t-53 38q-8 14 -12.5 29.5t-6.5 38.5q-20 -26 -49 -54.5t-55 -45.5q-41 -27 -80 -35.5t-73 -0.5q-29 7 -49.5 26t-31.5 49q-9 27 -10.5 61t1.5 68t9.5 63t12.5 46q6 16 18 23t25 7q15 0 26.5 -11.5 t4.5 -31.5q-7 -22 -12 -49t-8 -53.5t-2 -50.5t6 -40q7 -25 32 -33q17 -5 40.5 0t47.5 22q59 42 97 94t55 100q6 14 19 18.5t27 2.5q14 -4 23 -14.5t5 -25.5q-11 -44 -12 -80t8 -61q8 -20 23 -26t34 -4q29 3 56.5 13.5t47.5 21.5q17 10 30 5t19 -19z" />
<glyph unicode="&#xfc;" d="M730 77q6 -12 3.5 -26.5t-18.5 -24.5q-23 -14 -57 -26t-72 -19q-34 -5 -69 5t-53 38q-8 14 -12.5 29.5t-6.5 38.5q-20 -26 -49 -54.5t-55 -45.5q-41 -27 -80 -35.5t-73 -0.5q-29 7 -49.5 26t-31.5 49q-9 27 -10.5 61t1.5 68t9.5 63t12.5 46q6 16 18 23t25 7 q15 0 26.5 -11.5t4.5 -31.5q-7 -22 -12 -49t-8 -53.5t-2 -50.5t6 -40q7 -25 32 -33q17 -5 40.5 0t47.5 22q59 42 97 94t55 100q6 14 19 18.5t27 2.5q14 -4 23 -14.5t5 -25.5q-11 -44 -12 -80t8 -61q8 -20 23 -26t34 -4q29 3 56.5 13.5t47.5 21.5q17 10 30 5t19 -19zM306 408 q0 -19 -14 -33t-33 -14q-20 0 -33.5 13.5t-13.5 33.5q1 20 13.5 34.5t32.5 14.5t34 -14.5t14 -34.5zM474 408q-1 -20 -14.5 -33t-32.5 -14q-20 0 -33.5 13.5t-13.5 33.5t13 34.5t33 14.5q19 0 33.5 -14.5t14.5 -34.5z" />
<glyph unicode="&#xfd;" horiz-adv-x="647" d="M478 510q7 -11 4.5 -21.5t-13.5 -17.5q-15 -9 -35.5 -20t-42.5 -23t-43 -22.5t-36 -17.5q-14 -6 -24 -2t-15 15q-5 10 -2.5 20.5t15.5 18.5q16 8 36.5 18.5t41.5 21t41.5 21t35.5 18.5q11 8 21 4.5t16 -13.5zM571 251q2 -23 2 -60t-3 -82.5t-7.5 -97t-11.5 -104.5 t-15 -105t-18 -98q-4 -20 -18 -28t-28 -5q-15 2 -24.5 14.5t-4.5 33.5q12 47 21 105t15 118t9.5 117.5t4.5 103.5q1 9 -2 13t-8.5 5t-11.5 -2t-11 -8q-16 -15 -40 -36t-51 -43.5t-54.5 -43.5t-50.5 -36q-42 -26 -80.5 -32.5t-72.5 20.5q-12 11 -23.5 30t-12.5 51 q0 24 7.5 51.5t19.5 53.5t25.5 48t24.5 35q11 14 26 16t26 -3q16 -8 20 -23.5t-11 -34.5q-9 -11 -19 -28t-19 -35t-14.5 -36t-5.5 -32q0 -11 4 -17.5t8 -10.5q9 -9 23.5 -6t34.5 16q30 19 62.5 44.5t65.5 54t64.5 57.5t58.5 55q12 13 29 16t32 -2q13 -5 22.5 -17t11.5 -32z " />
<glyph unicode="&#xfe;" horiz-adv-x="541" d="M182 -53l24 -170q2 -7 8 -18.5t7 -23.5q2 -16 -8 -24.5t-25 -8.5q-25 -2 -39 18q-8 11 -11.5 23.5t-6.5 28.5q-8 39 -16.5 98t-14.5 124t-8 128t4 110q0 47 4 99t9.5 101.5t12.5 93.5t13 74q3 16 6.5 28.5t11.5 23.5q14 20 39 18q15 0 25 -8.5t8 -24.5q-1 -12 -7 -23.5 t-8 -18.5q-5 -29 -10.5 -65.5t-11 -78t-9.5 -85.5t-6 -87q10 12 26 23.5t32 19.5q28 14 67 27.5t78 18.5q40 6 67.5 -2.5t43.5 -25.5q21 -24 19 -64.5t-27 -85.5q-12 -25 -30.5 -52t-40.5 -51q-35 -38 -77.5 -67.5t-86.5 -57.5q-15 -10 -29 -6t-22 17q-7 12 -4 27.5t15 23.5 q47 30 85 56.5t66 59.5q18 20 33.5 43t23.5 42q9 19 12 32.5t-5 24.5q-5 7 -15 9.5t-29 0.5q-26 -3 -62 -15t-70 -32q-17 -10 -33 -24t-24 -31q-2 -5 -6 -11.5t-6 -12.5q-2 -14 -2.5 -34.5t1 -44t3 -47.5t3 -44t2.5 -33.5t1 -15.5z" />
<glyph unicode="&#xff;" horiz-adv-x="647" d="M571 251q2 -23 2 -60t-3 -82.5t-7.5 -97t-11.5 -104.5t-15 -105t-18 -98q-4 -20 -18 -28t-28 -5q-15 2 -24.5 14.5t-4.5 33.5q12 47 21 105t15 118t9.5 117.5t4.5 103.5q1 9 -2 13t-8.5 5t-11.5 -2t-11 -8q-16 -15 -40 -36t-51 -43.5t-54.5 -43.5t-50.5 -36 q-42 -26 -80.5 -32.5t-72.5 20.5q-12 11 -23.5 30t-12.5 51q0 24 7.5 51.5t19.5 53.5t25.5 48t24.5 35q11 14 26 16t26 -3q16 -8 20 -23.5t-11 -34.5q-9 -11 -19 -28t-19 -35t-14.5 -36t-5.5 -32q0 -11 4 -17.5t8 -10.5q9 -9 23.5 -6t34.5 16q30 19 62.5 44.5t65.5 54 t64.5 57.5t58.5 55q12 13 29 16t32 -2q13 -5 22.5 -17t11.5 -32zM320 412q0 -19 -14 -33t-33 -14q-20 0 -33.5 13.5t-13.5 33.5q1 20 13.5 34.5t32.5 14.5t34 -14.5t14 -34.5zM488 412q-1 -20 -14.5 -33t-32.5 -14q-20 0 -33.5 13.5t-13.5 33.5t13 34.5t33 14.5 q19 0 33.5 -14.5t14.5 -34.5z" />
<glyph unicode="&#x152;" horiz-adv-x="1088" d="M626 230q0 19 -10.5 38.5t-28 37.5t-40.5 34t-47 28q-21 10 -38 15.5t-33 7t-32 0t-37 -4.5q-15 -2 -33 1.5t-25 10.5q-29 -23 -55 -58.5t-45.5 -73.5t-31 -74.5t-11.5 -60.5q0 -32 9 -55t24 -37q15 -15 44.5 -21t65 -4.5t74 10t73.5 22.5q42 17 83.5 49t67.5 68 q13 18 19.5 36t6.5 31zM1089 561q1 -15 -9.5 -28t-31.5 -12q-23 1 -57 1q-33 0 -71 -1.5t-78.5 -4t-77.5 -7.5q-7 -1 -12.5 -3t-8.5 -11q-12 -35 -21 -85t-15 -104q35 7 74.5 14t80 13t80 11.5t72.5 10.5q17 2 27 -5.5t13 -19.5q4 -15 -4.5 -30t-28.5 -19q-23 -4 -62 -9.5 t-84 -12.5t-91.5 -14.5t-83.5 -14.5q-2 -23 -3.5 -53.5t-2 -61.5t1 -57.5t4.5 -41.5q4 -18 30 -18q41 0 85 6.5t107 27.5q25 8 46.5 19.5t38.5 32.5q14 14 27 14q14 0 24 -8q11 -9 12 -25t-6 -31q-10 -21 -43.5 -39.5t-71.5 -32.5q-25 -9 -54.5 -16t-58.5 -12t-57 -7.5 t-50 -2.5q-43 0 -67.5 14.5t-35.5 57.5q-4 16 -5 38.5t-1 38.5q-31 -31 -69.5 -56.5t-74.5 -39.5q-51 -18 -99.5 -27.5t-92.5 -9t-81.5 11.5t-64.5 34q-31 27 -42.5 63t-11.5 82q0 39 15.5 87.5t42 95.5t62 89t76.5 69q3 11 10.5 19t18.5 11q15 3 32 -6q20 -12 28 -34 q22 2 40.5 3t37 -1t39 -8.5t47.5 -19.5q29 -14 56.5 -34.5t48.5 -43.5q5 35 13.5 73.5t16.5 67.5q-6 -1 -12.5 -1.5t-12.5 -2.5q-18 -4 -26.5 9.5t-6.5 30.5q2 12 9.5 21.5t21.5 11.5q43 7 99.5 12.5t114 9t110 4.5t87.5 0q18 -1 27 -10.5t10 -22.5z" />
<glyph unicode="&#x153;" horiz-adv-x="844" d="M430 117q3 9 -0.5 20.5t-11 22.5t-17.5 20t-20 14q-8 -6 -19.5 -9t-24.5 -4t-26 0t-22 5q-14 5 -22.5 14t-5.5 23q-12 -5 -26.5 -17t-28 -29t-24 -38t-13.5 -43q-3 -30 -3 -47t6 -27t19.5 -13.5t36.5 -6.5q55 0 94 15q11 4 28.5 16t34.5 27t30 30.5t15 26.5zM674 318 q-7 5 -19.5 1t-22.5 -9q-11 -5 -17 -11.5t-14 -14.5q-29 -28 -46.5 -55.5t-31.5 -60.5q22 6 45 16t42.5 23t35 28t23.5 32q6 12 10 28t-5 23zM876 81q8 -14 4 -30t-24 -23q-23 -8 -58.5 -23t-78.5 -28t-91 -20t-96 1q-29 5 -52.5 18.5t-34.5 39.5q-20 -21 -41 -35.5 t-50 -27.5q-33 -14 -61 -20t-63 -7q-40 -1 -70.5 8.5t-49 31.5t-23 57.5t6.5 87.5q7 33 21.5 61t32.5 50.5t39 39.5t42 28q24 13 49.5 11.5t44.5 -20.5q14 0 23.5 -0.5t22.5 -2.5q32 -6 54 -20t41 -36q19 40 42 70.5t35 43.5q10 11 23.5 22t31.5 19q32 14 66 16.5t54 -7.5 q31 -15 36 -53t-11 -78q-13 -32 -38 -60t-57.5 -50t-69 -36t-72.5 -18q-1 -22 9 -37t34 -20q35 -7 75.5 -1t79.5 18t74.5 25t59.5 21q14 3 24.5 -2t15.5 -14z" />
<glyph unicode="&#x178;" horiz-adv-x="533" d="M288 686q0 -19 -14 -33t-33 -14q-20 0 -33.5 13.5t-13.5 33.5q1 20 13.5 34.5t32.5 14.5t34 -14.5t14 -34.5zM456 686q-1 -20 -14.5 -33t-32.5 -14q-20 0 -33.5 13.5t-13.5 33.5t13 34.5t33 14.5q19 0 33.5 -14.5t14.5 -34.5zM648 562q-23 -26 -47 -57t-45 -63 q-33 -51 -61 -95.5t-53.5 -87t-50 -84t-49.5 -86.5q6 -19 -3 -32t-23 -15q-8 -14 -21.5 -37.5t-28.5 -48.5t-29 -47.5t-23 -34.5q-11 -14 -26 -15t-26 7q-12 8 -16 20.5t7 28.5q25 38 51.5 83.5t49.5 86.5q-29 50 -60.5 111.5t-59.5 121t-49.5 110.5t-30.5 80q-5 13 3 23.5 t21 15.5t26.5 1t19.5 -21q11 -30 30.5 -75t43.5 -95t49.5 -101.5t49.5 -94.5q15 25 35.5 61t46 78.5t54.5 89t60 92.5q48 71 96 128q12 13 28.5 12t27.5 -9t14 -22t-11 -29z" />
<glyph unicode="&#x2c6;" horiz-adv-x="346" d="M270 695q9 -11 8 -21.5t-9 -17.5t-17.5 -8t-19.5 7q-12 11 -25.5 24.5t-23.5 22.5q-3 4 -6 3.5t-6 -2.5q-17 -11 -39 -24.5t-42 -26.5q-11 -7 -22.5 -3.5t-16.5 13.5q-6 8 -5 18.5t13 18.5q27 16 54.5 33.5t48.5 29.5q24 16 44 -1q15 -14 33 -33t31 -33z" />
<glyph unicode="&#x2dc;" horiz-adv-x="377" d="M330 722q-9 -35 -27 -49.5t-40 -13.5q-37 0 -76 33q-18 15 -33 15q-20 0 -40 -32q-7 -12 -18.5 -14t-21.5 4q-8 4 -12.5 13.5t3.5 22.5q16 33 39.5 48t46.5 15q34 0 68 -26q29 -21 40 -21q12 0 18 20q5 14 16 17.5t20 0.5q10 -4 15.5 -13t1.5 -20z" />
<glyph unicode="&#x2000;" horiz-adv-x="436" />
<glyph unicode="&#x2001;" horiz-adv-x="873" />
<glyph unicode="&#x2002;" horiz-adv-x="436" />
<glyph unicode="&#x2003;" horiz-adv-x="873" />
<glyph unicode="&#x2004;" horiz-adv-x="291" />
<glyph unicode="&#x2005;" horiz-adv-x="218" />
<glyph unicode="&#x2006;" horiz-adv-x="145" />
<glyph unicode="&#x2007;" horiz-adv-x="145" />
<glyph unicode="&#x2008;" horiz-adv-x="109" />
<glyph unicode="&#x2009;" horiz-adv-x="174" />
<glyph unicode="&#x200a;" horiz-adv-x="48" />
<glyph unicode="&#x2010;" horiz-adv-x="502" d="M448 191q1 -10 -6 -19t-22 -11q-21 -2 -54 -2t-66 0.5t-60.5 1t-37.5 -1.5q-5 0 -11 -4.5t-11 -7.5q-8 -5 -17 -4t-16 7q-14 10 -11 30q3 14 13.5 24t24.5 13q16 4 49 4t70 -1.5t71 -2.5t54 1q14 2 22 -7t8 -20z" />
<glyph unicode="&#x2011;" horiz-adv-x="502" d="M448 191q1 -10 -6 -19t-22 -11q-21 -2 -54 -2t-66 0.5t-60.5 1t-37.5 -1.5q-5 0 -11 -4.5t-11 -7.5q-8 -5 -17 -4t-16 7q-14 10 -11 30q3 14 13.5 24t24.5 13q16 4 49 4t70 -1.5t71 -2.5t54 1q14 2 22 -7t8 -20z" />
<glyph unicode="&#x2012;" horiz-adv-x="502" d="M448 191q1 -10 -6 -19t-22 -11q-21 -2 -54 -2t-66 0.5t-60.5 1t-37.5 -1.5q-5 0 -11 -4.5t-11 -7.5q-8 -5 -17 -4t-16 7q-14 10 -11 30q3 14 13.5 24t24.5 13q16 4 49 4t70 -1.5t71 -2.5t54 1q14 2 22 -7t8 -20z" />
<glyph unicode="&#x2013;" horiz-adv-x="502" d="M448 190q1 -10 -6 -19t-22 -11q-21 -2 -54 -2t-66 1t-60.5 1.5t-37.5 -1.5q-5 0 -11 -4.5t-11 -7.5q-8 -5 -17 -4t-16 7q-14 10 -11 30q3 14 13.5 24t24.5 13q16 4 49 3.5t70 -2t71 -2.5t54 1q14 2 22 -7t8 -20z" />
<glyph unicode="&#x2014;" horiz-adv-x="740" d="M710 190q0 -11 -7 -20t-21 -10q-19 -2 -54.5 -2.5t-80.5 -0.5t-95 0.5t-98 1t-89.5 1t-68.5 0.5q-7 -3 -16 -4t-15 0q-14 2 -22 10.5t-8 19.5q0 10 5.5 18.5t17.5 13.5q18 7 36 10t25 -8q14 0 47.5 -0.5t77 -1t93.5 -1t96 -0.5h86t61 2q14 2 22 -8t8 -21z" />
<glyph unicode="&#x2018;" horiz-adv-x="137" d="M151 501q8 -12 3.5 -23t-12.5 -16q-25 -14 -43 10q-9 12 -16 31.5t-10 41.5t-1.5 43.5t10.5 36.5q8 13 19.5 16.5t22.5 -1.5q9 -4 15.5 -12t6.5 -20q0 -11 -3.5 -17.5t-9.5 -12.5q-3 -15 2.5 -38.5t15.5 -38.5z" />
<glyph unicode="&#x2019;" horiz-adv-x="137" d="M146 475q-6 -14 -18.5 -17t-23.5 1t-16 13.5t1 23.5q3 8 5 18.5t3 21.5t0 21.5t-4 17.5q-14 9 -18 27q-2 11 3 20.5t13 14.5q9 7 22 6t22 -13q11 -14 16.5 -34.5t6.5 -42t-2.5 -42.5t-9.5 -36z" />
<glyph unicode="&#x201a;" horiz-adv-x="152" d="M106 83v-27v-39q0 -20 -0.5 -39.5t-0.5 -32.5q0 -14 -9 -21.5t-21 -7.5q-11 0 -20 7t-9 22q0 24 0.5 54t0.5 46q-5 3 -6.5 8.5t-0.5 11.5t3.5 12.5t4.5 11.5q11 22 33 22q9 -1 16.5 -7.5t8.5 -20.5z" />
<glyph unicode="&#x201c;" horiz-adv-x="262" d="M287 500q8 -12 4 -23t-13 -16q-11 -6 -23 -4.5t-20 14.5q-9 13 -16 32.5t-10 41.5t-1.5 43t10.5 36q8 13 19.5 16.5t22.5 -1.5q9 -4 15.5 -12t6.5 -20q0 -11 -3.5 -17.5t-9.5 -12.5q-3 -15 2.5 -38.5t15.5 -38.5zM129 501q8 -12 4 -23t-13 -16q-11 -6 -23 -4.5t-20 14.5 q-9 13 -16 32.5t-10 41.5t-1.5 43t10.5 36q8 13 19.5 16.5t22.5 -1.5q9 -4 15.5 -12t6.5 -20q0 -11 -3.5 -17.5t-9.5 -12.5q-3 -15 2.5 -38.5t15.5 -38.5z" />
<glyph unicode="&#x201d;" horiz-adv-x="262" d="M280 474q-6 -14 -18.5 -17t-23.5 1t-16 13.5t1 23.5q3 8 5 18.5t3 21.5t0 21.5t-4 17.5q-14 9 -18 27q-2 11 3 20.5t13 14.5q9 7 22 6t22 -13q11 -14 16.5 -34.5t6.5 -42t-2.5 -42.5t-9.5 -36zM123 475q-6 -14 -18.5 -17t-23.5 1t-16 13.5t1 23.5q3 8 5 18.5t3 21.5 t0 21.5t-4 17.5q-14 9 -18 27q-2 11 3 20.5t13 14.5q9 7 22 6t22 -13q11 -14 16.5 -34.5t6.5 -42t-2.5 -42.5t-9.5 -36z" />
<glyph unicode="&#x201e;" horiz-adv-x="262" d="M238 -87q-6 -14 -18.5 -17t-23.5 1t-16 13.5t1 23.5q3 8 5 18.5t3 21.5t0 21.5t-4 17.5q-14 9 -18 27q-2 11 3 20.5t13 14.5q9 7 22 6t22 -13q11 -14 16.5 -34.5t6.5 -42t-2.5 -42.5t-9.5 -36zM81 -86q-6 -14 -18.5 -17t-23.5 1t-16 13.5t1 23.5q3 8 5 18.5t3 21.5 t0 21.5t-4 17.5q-14 9 -18 27q-2 11 3 20.5t13 14.5q9 7 22 6t22 -13q11 -14 16.5 -34.5t6.5 -42t-2.5 -42.5t-9.5 -36z" />
<glyph unicode="&#x2022;" horiz-adv-x="353" d="M298 282q0 -26 -9.5 -48t-26.5 -39t-39.5 -26.5t-47.5 -9.5q-26 0 -48 9.5t-39 26.5t-26.5 39t-9.5 48q0 25 9.5 47.5t26.5 39.5t39 26.5t48 9.5q25 0 47.5 -9.5t39.5 -26.5t26.5 -39.5t9.5 -47.5z" />
<glyph unicode="&#x2026;" horiz-adv-x="599" d="M535 -24q-16 -11 -36 -10.5t-34 16.5t-14 38q0 23 20 39q15 11 33.5 10t30.5 -10q10 -7 14.5 -18.5t4.5 -23.5t-4.5 -23t-14.5 -18zM350 -23q-16 -11 -36 -10.5t-34 16.5t-14 38q0 23 20 39q15 11 33.5 10t30.5 -10q10 -7 14.5 -18.5t4.5 -23.5t-4.5 -23t-14.5 -18z M155 -23q-16 -11 -36 -10.5t-34 16.5t-14 38q0 23 20 39q15 11 33.5 10t30.5 -10q10 -7 14.5 -18.5t4.5 -23.5t-4.5 -23t-14.5 -18z" />
<glyph unicode="&#x202f;" horiz-adv-x="174" />
<glyph unicode="&#x2039;" horiz-adv-x="267" d="M218 23q7 -10 4.5 -19t-9.5 -14q-8 -5 -17.5 -4.5t-17.5 9.5q-10 12 -22.5 28.5t-25 34t-24.5 34t-21 30.5q-8 13 -8.5 23t8.5 24q8 13 20 29.5t25 33t26.5 32t24.5 27.5q8 9 17 9q10 0 17 -6q7 -5 8.5 -15t-6.5 -19q-26 -30 -47.5 -56.5t-36.5 -49.5q-5 -7 0 -15 q17 -27 40 -56t45 -60z" />
<glyph unicode="&#x203a;" horiz-adv-x="267" d="M229 117q-9 -14 -21 -30.5t-25 -33t-26 -31.5t-24 -27q-8 -8 -18 -8q-9 0 -16 6q-7 5 -8.5 14.5t6.5 18.5q26 31 48 58t36 48q5 6 0 15q-17 27 -40 56.5t-45 59.5q-6 10 -4.5 19t9.5 14t17 4.5t18 -9.5q10 -12 22.5 -28.5t25.5 -34t25 -34.5t20 -30q10 -15 9 -24.5 t-9 -22.5z" />
<glyph unicode="&#x205f;" horiz-adv-x="218" />
<glyph unicode="&#x2122;" horiz-adv-x="781" d="M762 355q-3 -4 -8 -8t-11 -5q-2 0 -3.5 1t-6.5 1q-6 -2 -23.5 -5.5t-35.5 -8.5q-22 -7 -43.5 -6t-38.5 18q-13 14 -20.5 33.5t-13.5 41.5q-3 12 -12 12t-29 -14q-4 -3 -12 -9.5t-17 -15t-18.5 -18.5t-17.5 -20t-22 -10q-15 0 -21 11q-8 14 -13.5 32t-11.5 31q-4 6 -12 4 q-10 0 -21 -14q-8 -11 -19.5 -23t-22.5 -23q-8 -9 -17.5 -22t-16.5 -23q-5 -8 -13.5 -9.5t-16.5 1.5q-5 2 -9.5 8t-4.5 14q-1 16 -1.5 35.5t0 39t1 36t0.5 26.5q1 11 7.5 15.5t14.5 4.5t14.5 -4.5t5.5 -15.5q-2 -20 -2.5 -44t0.5 -47q4 5 8.5 10.5t9.5 11.5q8 8 16.5 17.5 t16.5 18.5q9 11 23.5 20.5t28.5 12.5q13 2 24 -2.5t19 -21.5q5 -11 9.5 -22t6.5 -18q2 -10 11 -1q10 11 24.5 23.5t25.5 20.5q36 30 63 30q31 0 40 -38q4 -20 11 -38.5t15 -29.5q8 -8 17 -8q10 0 19 3q20 6 42 11.5t36 7.5q14 0 22 -6q12 -8 3 -22zM217 462q0 -6 -5 -11.5 t-15 -5.5q-12 0 -35 1t-45 1q0 -29 4 -60t9 -50q2 -9 -2.5 -15t-11.5 -8q-8 -2 -16 2t-11 15q-6 22 -9.5 53t-3.5 63h-40q-10 0 -15 5.5t-5 12.5t4.5 13t15.5 7h40q0 32 5.5 78.5t16.5 86.5q-6 2 -4 9q1 4 4.5 8.5t6.5 9.5q1 3 2 5.5t2 4.5q4 8 12 10t15 -2q14 -6 14 -22 q0 -6 -2.5 -9.5t-5.5 -8.5q-5 -16 -9.5 -37.5t-8 -45t-5.5 -46t-2 -41.5h17t23 -0.5t23.5 -1.5t20.5 -2q8 -1 12 -6.5t4 -12.5z" />
<glyph unicode="&#xe000;" horiz-adv-x="365" d="M0 365h365v-365h-365v365z" />
</font>
</defs>
</svg>
